<?xml version="1.0" standalone="no"?>
<!DOCTYPE svg PUBLIC "-//W3C//DTD SVG 1.1//EN" "http://www.w3.org/Graphics/SVG/1.1/DTD/svg11.dtd" >
<svg xmlns="http://www.w3.org/2000/svg">
<metadata>Generated by IcoMoon</metadata>
<defs>
<font id="icomoon" horiz-adv-x="1024">
<font-face units-per-em="1024" ascent="896" descent="-128" />
<missing-glyph horiz-adv-x="1024" />
<glyph unicode="&#x20;" d="" />
<glyph unicode="&#xe900;" glyph-name="arrows_diagonal2" d="M992-73.376l-937.376 937.376h137.376v32h-176l-16-16v-176h32v137.376l937.376-937.376h-137.376v-32h176l16 16v176h-32z" />
<glyph unicode="&#xe901;" glyph-name="arrows_anticlockwise_dashed" d="M512 896c-282.32 0-512-229.68-512-512 0-107.392 32.896-210.192 95.12-297.296l70.464-70.704h-133.584v-32h176l16 16v176h-32v-141.248l-71.616 71.616c-57.824 81.424-88.384 177.392-88.384 277.632 0 264.672 215.328 480 480 480 10.4 0 20.752-0.336 30.992-0.992l2.032 31.936c-10.928 0.704-21.936 1.056-33.024 1.056zM849.328 769.184l-21.088-24.064c15.728-13.792 30.688-28.72 44.432-44.384l24.032 21.104c-14.656 16.72-30.592 32.64-47.376 47.344zM997.12 219.872l-30.32 10.256c-6.704-19.808-14.784-39.344-24-58.032l28.688-14.16c9.856 19.936 18.48 40.768 25.632 61.936zM768.432-59.248c19.232 11.136 37.936 23.68 55.632 37.296l-19.536 25.36c-16.576-12.768-34.112-24.528-52.128-34.976l16.032-27.68zM751.68 799.968c18.064-10.448 35.648-22.192 52.224-34.912l19.472 25.392c-17.664 13.568-36.4 26.096-55.68 37.232l-16.016-27.712zM990.96 415.856c0.704-10.48 1.040-21.2 1.040-31.856 0-10.384-0.336-20.704-0.992-30.944l31.936-2.032c0.704 10.912 1.056 21.904 1.056 32.976 0 11.36-0.368 22.784-1.104 33.968l-31.936-2.112zM677.072-100.8c21.040 7.168 41.872 15.808 61.856 25.712l-14.192 28.672c-18.752-9.28-38.256-17.376-57.984-24.096l10.32-30.288zM579.296-123.616c22.128 2.912 44.24 7.312 65.696 13.072l-8.288 30.912c-20.128-5.392-40.848-9.52-61.584-12.24l4.176-31.744zM574.272 860c20.72-2.688 41.456-6.768 61.632-12.128l8.224 30.928c-21.52 5.728-43.632 10.080-65.712 12.944l-4.144-31.744zM1006.544 517.008l-30.912-8.304c5.408-20.128 9.536-40.848 12.256-61.568l31.712 4.16c-2.88 22.112-7.28 44.224-13.056 65.712zM828.8 23.36l21.12-24.032c16.72 14.704 32.624 30.656 47.296 47.392l-24.064 21.088c-13.76-15.696-28.688-30.656-44.352-44.448zM1019.728 317.664l-31.744 4.112c-2.688-20.768-6.768-41.488-12.128-61.6l30.944-8.24c5.696 21.472 10.064 43.584 12.928 65.728zM892.64 676.48c12.768-16.592 24.512-34.128 34.944-52.128l27.68 16.016c-11.104 19.216-23.664 37.936-37.28 55.632l-25.344-19.52zM942.416 596.688c9.248-18.688 17.36-38.176 24.096-57.92l30.288 10.32c-7.168 21.072-15.808 41.872-25.68 61.808l-28.704-14.208zM665.92 838.784c19.76-6.688 39.296-14.768 58.048-24l14.16 28.704c-20.016 9.856-40.864 18.48-61.952 25.616l-10.256-30.32zM955.696 128.336l-27.712 16c-10.432-18.080-22.192-35.664-34.896-52.24l25.408-19.472c13.552 17.696 26.064 36.432 37.2 55.712zM512-96v-32c11.088 0 22.096 0.352 33.008 1.040l-2.032 31.936c-10.224-0.64-20.576-0.976-30.976-0.976z" />
<glyph unicode="&#xe902;" glyph-name="arrows_anticlockwise" d="M512 896c-282.32 0-512-229.68-512-512 0-107.392 32.896-210.192 95.12-297.296l70.464-70.704h-133.584v-32h176l16 16v176h-32v-141.248l-71.616 71.632c-57.824 81.408-88.384 177.36-88.384 277.616 0 264.672 215.328 480 480 480s480-215.328 480-480-215.328-480-480-480v-32c282.32 0 512 229.68 512 512s-229.68 512-512 512z" />
<glyph unicode="&#xe903;" glyph-name="arrows_button_down" d="M512 896c-149.984 0-272-122.016-272-272v-480c0-149.984 122.016-272 272-272s272 122.016 272 272v480c0 149.984-122.016 272-272 272zM752 144c0-132.336-107.664-240-240-240s-240 107.664-240 240v480c0 132.336 107.664 240 240 240s240-107.664 240-240v-480zM512 352c-114.688 0-208-93.312-208-208s93.312-208 208-208 208 93.312 208 208-93.312 208-208 208zM512-32c-97.040 0-176 78.96-176 176s78.96 176 176 176 176-78.96 176-176-78.96-176-176-176z" />
<glyph unicode="&#xe904;" glyph-name="arrows_button_off" d="M752 656h-480c-149.984 0-272-122.016-272-272s122.016-272 272-272h480c149.984 0 272 122.016 272 272s-122.016 272-272 272zM752 144h-480c-132.336 0-240 107.664-240 240s107.664 240 240 240h480c132.336 0 240-107.664 240-240s-107.664-240-240-240zM272 592c-114.688 0-208-93.312-208-208s93.312-208 208-208 208 93.312 208 208-93.312 208-208 208zM272 208c-97.040 0-176 78.96-176 176s78.96 176 176 176 176-78.96 176-176-78.96-176-176-176z" />
<glyph unicode="&#xe905;" glyph-name="arrows_button_on" d="M752 656h-480c-149.984 0-272-122.016-272-272s122.016-272 272-272h480c149.984 0 272 122.016 272 272s-122.016 272-272 272zM752 144h-480c-132.336 0-240 107.664-240 240s107.664 240 240 240h480c132.336 0 240-107.664 240-240s-107.664-240-240-240zM752 592c-114.688 0-208-93.312-208-208s93.312-208 208-208 208 93.312 208 208-93.312 208-208 208zM752 208c-97.040 0-176 78.96-176 176s78.96 176 176 176 176-78.96 176-176-78.96-176-176-176z" />
<glyph unicode="&#xe906;" glyph-name="arrows_button_up" d="M784 144v480c0 149.984-122.016 272-272 272s-272-122.016-272-272v-480c0-149.984 122.016-272 272-272s272 122.016 272 272zM512-96c-132.336 0-240 107.664-240 240v480c0 132.336 107.664 240 240 240s240-107.664 240-240v-480c0-132.336-107.664-240-240-240zM512 832c-114.688 0-208-93.312-208-208s93.312-208 208-208 208 93.312 208 208-93.312 208-208 208zM512 448c-97.040 0-176 78.96-176 176s78.96 176 176 176 176-78.96 176-176-78.96-176-176-176z" />
<glyph unicode="&#xe907;" glyph-name="arrows_check" d="M219.312 379.312l-22.624-24.976 192-194.336h22.624l384 386.336-22.624 23.808-372.688-372.112z" />
<glyph unicode="&#xe908;" glyph-name="arrows_circle_check" d="M411.312 160l384 386.336-22.624 23.808-372.688-372.112-180.688 180.976-22.624-24.816 192-194.192zM511.984-128c0 0 0.016 0 0.032 0 136.768 0 265.328 53.28 362.032 149.968s149.952 225.28 149.936 362.048c0 136.768-53.248 265.344-149.952 362.032-96.688 96.688-225.248 149.952-362.016 149.952-0.016 0-0.016 0-0.032 0-136.768 0-265.328-53.264-362.032-149.968-96.688-96.704-149.952-225.28-149.936-362.048 0-136.768 53.248-265.344 149.952-362.032 96.688-96.688 225.248-149.952 362.016-149.952zM172.592 723.408c90.64 90.656 211.184 140.592 339.424 140.592 0.016 0 0.016 0 0.032 0 128.192 0 248.72-49.936 339.376-140.576 90.656-90.656 140.576-211.2 140.56-339.408 0-128.224-49.92-248.768-140.56-339.424s-211.184-140.592-339.408-140.592h-0.032c-0.016 0-0.016 0-0.032 0-128.192 0-248.72 49.936-339.376 140.576-90.64 90.656-140.576 211.184-140.56 339.408-0.016 128.224 49.92 248.768 140.576 339.424z" />
<glyph unicode="&#xe909;" glyph-name="liquid_arrow_right" horiz-adv-x="1328" d="M-0.004 338.951v85.757h1286.365v-85.757h-1286.365zM924.946 667.938l60.031 60.031 343.030-343.030-60.031-60.031zM1267.977 443.092l60.031-60.031-343.030-343.030-60.031 60.031z" />
<glyph unicode="&#xe90a;" glyph-name="liquid_user" horiz-adv-x="853" d="M554.667 298.667c164.961 0 298.667-133.705 298.667-298.667v-73.811l-29.663-9.492c-18.617-5.957-53.472-14.45-104.060-22.794-83.103-13.708-180.924-21.902-292.944-21.902s-209.841 8.194-292.944 21.902c-50.588 8.344-85.443 16.837-104.060 22.794l-29.663 9.492v73.811c0 164.961 133.705 298.667 298.667 298.667h256zM768 0c0 117.833-95.5 213.333-213.333 213.333h-256c-117.833 0-213.333-95.5-213.333-213.333v-9.737c17.829-4.132 38.601-8.26 62.277-12.166 78.563-12.959 171.742-20.764 279.056-20.764s200.493 7.806 279.056 20.764c23.676 3.905 44.448 8.033 62.277 12.166v9.737zM256 640c0-104.342 85.398-213.333 170.667-213.333s170.667 108.991 170.667 213.333c0 94.239-76.428 170.667-170.667 170.667s-170.667-76.428-170.667-170.667zM170.667 640c0 141.367 114.633 256 256 256s256-114.633 256-256c0-147.537-118.414-298.667-256-298.667s-256 151.13-256 298.667z" />
<glyph unicode="&#xe90b;" glyph-name="liquid_parent" d="M938.667 290.133c0 15.769-8.678 30.231-22.69 37.71l-170.965 91.733 40.346 75.193 170.883-91.689c41.717-22.266 67.76-65.666 67.76-112.947v-418.133h-469.333v85.333h384v332.8zM537.878 494.524l40.149-75.299-100.267-53.461-40.149 75.299zM661.333 469.333c82.463 0 149.333 66.871 149.333 149.333v42.667c0 82.463-66.871 149.333-149.333 149.333s-149.333-66.871-149.333-149.333v-42.667c0-82.463 66.871-149.333 149.333-149.333zM661.333 384c-129.591 0-234.667 105.076-234.667 234.667v42.667c0 129.591 105.076 234.667 234.667 234.667s234.667-105.076 234.667-234.667v-42.667c0-129.591-105.076-234.667-234.667-234.667zM512 32.597c0 16.172-9.124 30.928-23.72 38.227l-106.112 53.461 38.395 76.208 105.996-53.403c43.384-21.692 70.775-65.992 70.775-114.493v-160.597h-597.333v160.597c0 48.469 27.403 92.817 70.616 114.392l106.112 53.461 38.395-76.208-106.251-53.531c-14.406-7.192-23.539-21.972-23.539-38.115v-75.264h426.667v75.264zM298.667 170.667c70.687 0 128 57.313 128 128v42.667c0 70.687-57.313 128-128 128s-128-57.313-128-128v-42.667c0-70.687 57.313-128 128-128zM298.667 85.333c-117.815 0-213.333 95.519-213.333 213.333v42.667c0 117.815 95.519 213.333 213.333 213.333s213.333-95.519 213.333-213.333v-42.667c0-117.815-95.519-213.333-213.333-213.333z" />
<glyph unicode="&#xe90c;" glyph-name="arrows_circle_left" d="M445.664 100.688l274.336 272v22.624l-274.336 272-23.808-22.624 260.112-260.688-259.808-260.688zM511.984-128c0 0 0.016 0 0.032 0 136.768 0 265.328 53.28 362.032 149.968s149.952 225.28 149.936 362.048c0 136.768-53.248 265.344-149.952 362.032-96.688 96.688-225.248 149.952-362.016 149.952-0.016 0-0.016 0-0.032 0-136.768 0-265.328-53.264-362.032-149.968-96.688-96.704-149.952-225.28-149.936-362.048 0-136.768 53.248-265.344 149.952-362.032 96.688-96.688 225.248-149.952 362.016-149.952zM172.592 723.408c90.64 90.656 211.184 140.592 339.424 140.592 0.016 0 0.016 0 0.032 0 128.192 0 248.72-49.936 339.376-140.576 90.656-90.656 140.576-211.2 140.56-339.408 0-128.224-49.92-248.768-140.56-339.424s-211.184-140.592-339.408-140.592h-0.032c-0.016 0-0.016 0-0.032 0-128.192 0-248.72 49.936-339.376 140.576-90.64 90.656-140.576 211.184-140.56 339.408-0.016 128.224 49.92 248.768 140.576 339.424z" />
<glyph unicode="&#xe90d;" glyph-name="arrows_circle_minus" d="M224 416h576v-32h-576v32zM511.984-128c0.016 0 0.016 0 0.032 0 136.768 0 265.344 53.28 362.032 149.968 96.704 96.688 149.936 225.28 149.936 362.048s-53.248 265.344-149.936 362.032c-96.704 96.688-225.264 149.952-362.032 149.952 0 0-0.016 0-0.032 0-136.768 0-265.344-53.264-362.032-149.968-96.704-96.704-149.936-225.296-149.936-362.048s53.248-265.344 149.936-362.032c96.704-96.688 225.264-149.952 362.032-149.952zM172.576 723.408c90.656 90.656 211.2 140.592 339.44 140.592 0.016 0 0.016 0 0.032 0 128.192 0 248.736-49.936 339.376-140.576 90.656-90.656 140.56-211.2 140.56-339.408s-49.904-248.768-140.56-339.424-211.184-140.592-339.408-140.592h-0.032c-0.016 0-0.016 0-0.032 0-128.192 0-248.736 49.936-339.376 140.576-90.656 90.656-140.56 211.2-140.56 339.408 0 128.224 49.904 248.768 140.56 339.424z" />
<glyph unicode="&#xe90e;" glyph-name="arrows_circle_plus" d="M496 96h32v272h272v32h-272v272h-32v-272h-272v-32h272zM511.984-128c0.016 0 0.016 0 0.032 0 136.768 0 265.344 53.28 362.032 149.968 96.704 96.688 149.936 225.28 149.936 362.048s-53.248 265.344-149.936 362.032c-96.704 96.688-225.264 149.952-362.032 149.952 0 0-0.016 0-0.032 0-136.768 0-265.344-53.264-362.032-149.968-96.704-96.704-149.936-225.296-149.936-362.048s53.248-265.344 149.936-362.032c96.704-96.688 225.264-149.952 362.032-149.952zM172.576 723.408c90.656 90.656 211.2 140.592 339.44 140.592 0.016 0 0.016 0 0.032 0 128.192 0 248.736-49.936 339.376-140.576 90.656-90.656 140.56-211.2 140.56-339.408s-49.904-248.768-140.56-339.424-211.184-140.592-339.408-140.592h-0.032c-0.016 0-0.016 0-0.032 0-128.192 0-248.736 49.936-339.376 140.576-90.656 90.656-140.56 211.2-140.56 339.408 0 128.224 49.904 248.768 140.56 339.424z" />
<glyph unicode="&#xe90f;" glyph-name="arrows_circle_remove" d="M293.36 216.816l22.72-22.544 195.952 197.424 197.424-195.952 22.528 22.72-197.424 195.936 195.952 197.44-22.72 22.544-195.952-197.424-197.424 195.952-22.528-22.72 197.424-195.936zM511.984-128c0.016 0 0.016 0 0.032 0 136.768 0 265.344 53.28 362.032 149.968 96.704 96.688 149.936 225.28 149.936 362.048s-53.248 265.344-149.936 362.032c-96.704 96.688-225.264 149.952-362.032 149.952 0 0-0.016 0-0.032 0-136.768 0-265.344-53.264-362.032-149.968-96.704-96.704-149.936-225.296-149.936-362.048s53.248-265.344 149.936-362.032c96.704-96.688 225.264-149.952 362.032-149.952zM172.576 723.408c90.656 90.656 211.2 140.592 339.44 140.592 0.016 0 0.016 0 0.032 0 128.192 0 248.736-49.936 339.376-140.576 90.656-90.656 140.56-211.2 140.56-339.408s-49.904-248.768-140.56-339.424-211.184-140.592-339.408-140.592h-0.032c-0.016 0-0.016 0-0.032 0-128.192 0-248.736 49.936-339.376 140.576-90.656 90.656-140.56 211.2-140.56 339.408 0 128.224 49.904 248.768 140.56 339.424z" />
<glyph unicode="&#xe910;" glyph-name="arrows_circle_right" d="M603.312 123.312l-260.688 260.688 260.688 260.688-24.976 22.624-274.336-272v-22.624l274.336-272zM511.984-128c0 0 0.016 0 0.032 0 136.768 0 265.328 53.28 362.032 149.968s149.952 225.28 149.936 362.048c0 136.768-53.248 265.344-149.952 362.032-96.688 96.688-225.248 149.952-362.016 149.952-0.016 0-0.016 0-0.032 0-136.768 0-265.328-53.264-362.032-149.968-96.688-96.704-149.952-225.28-149.936-362.048 0-136.768 53.248-265.344 149.952-362.032 96.688-96.688 225.248-149.952 362.016-149.952zM172.592 723.408c90.64 90.656 211.184 140.592 339.424 140.592 0.016 0 0.016 0 0.032 0 128.192 0 248.72-49.936 339.376-140.576 90.656-90.656 140.576-211.2 140.56-339.408 0-128.224-49.92-248.768-140.56-339.424s-211.184-140.592-339.408-140.592h-0.032c-0.016 0-0.016 0-0.032 0-128.192 0-248.72 49.936-339.376 140.576-90.64 90.656-140.576 211.184-140.56 339.408-0.016 128.224 49.92 248.768 140.576 339.424z" />
<glyph unicode="&#xe911;" glyph-name="arrows_circle_up" d="M512 505.376l260.688-260.688 22.624 24.976-272 274.336h-22.624l-272-274.336 22.624-23.808zM511.984-128c0 0 0.016 0 0.032 0 136.768 0 265.328 53.28 362.032 149.968s149.952 225.28 149.936 362.048c0 136.768-53.248 265.344-149.952 362.032-96.688 96.688-225.248 149.952-362.016 149.952-0.016 0-0.016 0-0.032 0-136.768 0-265.328-53.264-362.032-149.968-96.688-96.704-149.952-225.28-149.936-362.048 0-136.768 53.248-265.344 149.952-362.032 96.688-96.688 225.248-149.952 362.016-149.952zM172.592 723.408c90.64 90.656 211.184 140.592 339.424 140.592 0.016 0 0.016 0 0.032 0 128.192 0 248.72-49.936 339.376-140.576 90.656-90.656 140.576-211.2 140.56-339.408 0-128.224-49.92-248.768-140.56-339.424s-211.184-140.592-339.408-140.592h-0.032c-0.016 0-0.016 0-0.032 0-128.192 0-248.72 49.936-339.376 140.576-90.64 90.656-140.576 211.184-140.56 339.408-0.016 128.224 49.92 248.768 140.576 339.424z" />
<glyph unicode="&#xe912;" glyph-name="liquid_calendar" d="M938.667-42.667v597.333h85.333v-682.667h-1024v682.667h85.333v-597.333zM85.333 725.333v-170.667h853.333v170.667h-853.333zM1024 810.667v-341.333h-1024v341.333h1024zM469.333 896h85.333v-256h-85.333zM213.333 896h85.333v-256h-85.333zM725.333 896h85.333v-256h-85.333z" />
<glyph unicode="&#xe913;" glyph-name="liquid_map_pin" horiz-adv-x="768" d="M405.575 43.093c39.265 43.765 78.53 90.735 115.094 138.954 39.904 52.624 74.1 103.518 100.812 151.27 39.878 71.29 61.186 132.425 61.186 178.683 0 176.059-136.106 298.667-298.667 298.667s-298.667-122.608-298.667-298.667c0-46.258 21.308-107.393 61.186-178.683 26.712-47.752 60.908-98.647 100.812-151.27 36.564-48.218 75.829-95.189 115.094-138.954 7.507-8.367 14.717-16.284 21.575-23.711 6.858 7.427 14.068 15.344 21.575 23.711zM768 512c0-63.768-25.687-137.466-72.046-220.342-28.835-51.548-65.166-105.62-107.29-161.171-38.103-50.248-78.838-98.978-119.573-144.38-14.263-15.897-27.52-30.257-39.441-42.849-7.213-7.618-12.421-12.998-15.294-15.907l-30.357-30.736-30.357 30.736c-2.872 2.908-8.081 8.288-15.294 15.907-11.921 12.591-25.178 26.952-39.441 42.849-40.735 45.402-81.47 94.131-119.573 144.38-42.125 55.552-78.455 109.623-107.29 161.171-46.359 82.876-72.046 156.574-72.046 220.342 0 225.29 176.183 384 384 384s384-158.71 384-384zM384 341.333c-94.257 0-170.667 76.41-170.667 170.667s76.41 170.667 170.667 170.667c94.257 0 170.667-76.41 170.667-170.667s-76.41-170.667-170.667-170.667zM384 426.667c47.128 0 85.333 38.205 85.333 85.333s-38.205 85.333-85.333 85.333c-47.128 0-85.333-38.205-85.333-85.333s38.205-85.333 85.333-85.333z" />
<glyph unicode="&#xe914;" glyph-name="arrows_clockwise_dashed" d="M130.912 92.112c-12.704 16.576-24.448 34.144-34.896 52.24l-27.712-16c11.136-19.296 23.664-38.032 37.2-55.696l25.408 19.456zM68.736 640.368l27.68-16.016c10.416 18 22.176 35.536 34.944 52.128l-25.344 19.52c-13.632-17.696-26.176-36.416-37.28-55.632zM0 384c0-11.072 0.352-22.064 1.040-32.976l31.936 2.032c-0.64 10.24-0.976 20.56-0.976 30.944 0 10.656 0.336 21.376 1.040 31.856l-31.936 2.112c-0.736-11.184-1.104-22.608-1.104-33.968zM4.272 317.664c2.88-22.16 7.232-44.272 12.944-65.728l30.944 8.24c-5.36 20.112-9.44 40.832-12.128 61.6l-31.76-4.112zM4.384 451.312l31.712-4.16c2.72 20.704 6.848 41.424 12.256 61.568l-30.912 8.304c-5.76-21.504-10.16-43.616-13.056-65.712zM27.2 549.072l30.288-10.32c6.736 19.744 14.848 39.232 24.096 57.92l-28.688 14.208c-9.888-19.92-18.528-40.72-25.696-61.808zM81.184 172.080c-9.216 18.688-17.296 38.224-24 58.032l-30.304-10.24c7.152-21.152 15.776-42 25.632-61.952l28.672 14.16zM358.080 838.784l-10.256 30.32c-21.088-7.136-41.936-15.76-61.952-25.616l14.16-28.704c18.752 9.232 38.288 17.312 58.048 24zM255.568-59.248l16.032 27.68c-18.016 10.432-35.552 22.208-52.128 34.976l-19.536-25.36c17.696-13.616 36.4-26.16 55.632-37.296zM444.704-123.616l4.16 31.728c-20.736 2.72-41.456 6.848-61.584 12.24l-8.288-30.912c21.472-5.744 43.584-10.144 65.712-13.056zM346.928-100.8l10.32 30.304c-19.728 6.704-39.232 14.816-57.984 24.096l-14.192-28.672c19.968-9.92 40.8-18.576 61.856-25.728zM272.32 799.968l-16 27.696c-19.28-11.136-38.016-23.664-55.68-37.232l19.472-25.392c16.56 12.736 34.144 24.48 52.208 34.928zM449.728 860l-4.128 31.728c-22.096-2.864-44.208-7.216-65.712-12.944l8.224-30.928c20.176 5.376 40.896 9.456 61.616 12.144zM174.672 769.184c-16.784-14.704-32.72-30.624-47.376-47.328l24.032-21.104c13.744 15.664 28.704 30.592 44.432 44.384l-21.088 24.048zM174.080-0.672l21.12 24.032c-15.664 13.792-30.592 28.736-44.352 44.448l-24.064-21.088c14.672-16.736 30.576-32.688 47.296-47.392zM512-96c-10.4 0-20.752 0.336-30.992 0.992l-2.032-31.936c10.928-0.704 21.936-1.056 33.024-1.056v32zM512 896c-11.088 0-22.096-0.352-33.008-1.040l2.032-31.936c10.224 0.64 20.576 0.976 30.976 0.976 264.672 0 480-215.328 480-480 0-100.24-30.56-196.208-88.384-277.632l-71.616-71.616v141.248h-32v-176l16-16h176v32h-133.504l68.672 68.688 1.696 2.016c62.24 87.104 95.136 189.904 95.136 297.296 0 282.32-229.68 512-512 512z" />
<glyph unicode="&#xe915;" glyph-name="arrows_clockwise" d="M512 896c-282.32 0-512-229.68-512-512s229.68-512 512-512v32c-264.672 0-480 215.328-480 480s215.328 480 480 480 480-215.328 480-480c0-100.256-30.56-196.208-88.384-277.632l-71.616-71.616v141.248h-32v-176l16-16h176v32h-133.504l68.672 68.688 1.696 2.016c62.24 87.104 95.136 189.904 95.136 297.296 0 282.32-229.68 512-512 512z" />
<glyph unicode="&#xe916;" glyph-name="arrows_compress" d="M763.312 484.688l-24.976 22.624-114.336-112v-22.624l114.336-112 23.808 22.624-83.52 84.688h345.376v32h-345.376zM260.688 283.312l24.976-22.624 114.336 112v22.624l-114.336 112-23.808-22.624 83.52-84.688h-345.376v-32h345.376zM500.688 272l-112-114.336 22.624-23.808 84.688 83.52v-345.376h32v345.376l84.688-84.688 22.624 24.976-112 114.336zM496 896v-345.376l-84.688 84.688-22.624-24.976 112-114.336h22.624l112 114.336-22.624 23.808-84.688-83.52v345.376z" />
<glyph unicode="&#xe917;" glyph-name="arrows_deny" d="M512 896c-136.752 0-265.312-53.264-362.016-149.968-96.72-96.704-149.984-225.28-149.984-362.032s53.264-265.328 149.984-362.032c96.704-96.704 225.264-149.968 362.016-149.968s265.312 53.264 362.016 149.984c96.72 96.688 149.984 225.264 149.984 362.016s-53.264 265.328-149.984 362.032c-96.704 96.704-225.264 149.968-362.016 149.968zM172.608 44.592c-90.672 90.672-140.608 211.2-140.608 339.408 0 122.848 45.952 238.576 129.568 327.808l678.256-678.256c-89.232-83.6-204.96-129.552-327.824-129.552-128.208 0-248.736 49.92-339.392 140.592zM862.432 56.192l-678.24 678.24c89.216 83.616 204.944 129.568 327.808 129.568 128.208 0 248.736-49.936 339.392-140.608 90.672-90.656 140.608-211.184 140.608-339.392 0-122.848-45.952-238.576-129.568-327.808z" />
<glyph unicode="&#xe918;" glyph-name="arrows_diagonal" d="M832 896v-32h137.376l-937.376-937.376v137.376h-32v-176l16-16h176v32h-137.376l937.376 937.376v-137.376h32v176l-16 16z" />
<glyph unicode="&#xe919;" glyph-name="arrows_down_double-34" d="M510.976 150.64l-260.688 260.688-22.624-24.992 272-274.336h22.624l272 274.336-22.624 23.808zM510.976 390.64l-260.688 260.688-22.624-24.992 272-274.336h22.624l272 274.336-22.624 23.808z" />
<glyph unicode="&#xe91a;" glyph-name="arrows_down" d="M772.688 523.312l-260.688-260.688-260.688 260.688-22.624-24.976 272-274.336h22.624l272 274.336z" />
<glyph unicode="&#xe91b;" glyph-name="arrows_downleft" d="M352 624v-384l16-16h384v32h-368v368z" />
<glyph unicode="&#xe91c;" glyph-name="arrows_downright" d="M272 256v-32h384l16 16v384h-32v-368z" />
<glyph unicode="&#xe91d;" glyph-name="arrows_drag_down_dashed" d="M496 16h32v-64h-32v64zM496 112h32v-64h-32v64zM496 304h32v-64h-32v64zM496 208h32v-64h-32v64zM768 640c0 141.152-114.848 256-256 256s-256-114.848-256-256c0-135.744 106.304-246.864 240-255.184v-48.816h32v48.816c133.696 8.32 240 119.44 240 255.184zM512 416c-123.52 0-224 100.48-224 224s100.48 224 224 224 224-100.48 224-224-100.48-224-224-224zM379.312 43.312l-22.624-24.976 144-146.336h22.624l144 146.336-22.624 23.808-123.312-122.144h-18.752z" />
<glyph unicode="&#xe91e;" glyph-name="arrows_drag_down" d="M512 896c-141.152 0-256-114.848-256-256 0-135.744 106.304-246.864 240-255.184v-458.192l-116.688 116.688-22.624-24.976 144-146.336h22.624l144 146.336-22.624 23.792-116.688-115.504v458.192c133.696 8.32 240 119.44 240 255.184 0 141.152-114.848 256-256 256zM512 416c-123.52 0-224 100.48-224 224s100.48 224 224 224 224-100.48 224-224-100.48-224-224-224z" />
<glyph unicode="&#xe91f;" glyph-name="arrows_drag_horiz" d="M368 896h32v-1024h-32v1024zM496 896h32v-1024h-32v1024zM624 896h32v-1024h-32v1024z" />
<glyph unicode="&#xe920;" glyph-name="arrows_drag_left_dashed" d="M80 400h64v-32h-64v32zM368 400h64v-32h-64v32zM272 400h64v-32h-64v32zM176 400h64v-32h-64v32zM768 640c-135.76 0-246.864-106.32-255.184-240h-48.816v-32h48.816c8.32-133.68 119.424-240 255.184-240 141.152 0 256 114.848 256 256s-114.848 256-256 256zM768 160c-123.52 0-224 100.48-224 224s100.48 224 224 224 224-100.48 224-224-100.48-224-224-224zM146.336 539.312l-146.336-144v-22.624l146.336-144 23.808 22.624-122.144 123.312v18.752l122.144 123.312z" />
<glyph unicode="&#xe921;" glyph-name="arrows_drag_left" d="M768 640c-135.76 0-246.864-106.32-255.184-240h-458.192l116.688 116.688-24.976 22.624-146.336-144v-22.624l146.336-144 23.792 22.624-115.504 116.688h458.192c8.32-133.68 119.424-240 255.184-240 141.152 0 256 114.848 256 256s-114.848 256-256 256zM768 160c-123.52 0-224 100.48-224 224s100.48 224 224 224 224-100.48 224-224-100.48-224-224-224z" />
<glyph unicode="&#xe922;" glyph-name="arrows_drag_right_dashed" d="M592 400h64v-32h-64v32zM688 400h64v-32h-64v32zM880 400h64v-32h-64v32zM784 400h64v-32h-64v32zM511.184 368h48.816v32h-48.816c-8.32 133.68-119.424 240-255.184 240-141.152 0-256-114.848-256-256s114.848-256 256-256c135.76 0 246.864 106.32 255.184 240zM256 160c-123.52 0-224 100.48-224 224s100.48 224 224 224 224-100.48 224-224-100.48-224-224-224zM852.688 516.688l123.312-123.312v-18.752l-123.312-123.312 24.976-22.624 146.336 144v22.624l-146.336 144z" />
<glyph unicode="&#xe923;" glyph-name="arrows_drag_right" d="M852.688 516.688l116.688-116.688h-458.192c-8.32 133.68-119.424 240-255.184 240-141.152 0-256-114.848-256-256s114.848-256 256-256c135.76 0 246.864 106.32 255.184 240h458.192l-116.688-116.688 24.976-22.624 146.336 144v22.624l-146.336 144-24.976-22.624zM256 160c-123.52 0-224 100.48-224 224s100.48 224 224 224 224-100.48 224-224-100.48-224-224-224z" />
<glyph unicode="&#xe924;" glyph-name="arrows_drag_up_dashed" d="M496 624h32v-64h-32v64zM496 816h32v-64h-32v64zM496 720h32v-64h-32v64zM496 528h32v-64h-32v64zM256 128c0-141.152 114.848-256 256-256s256 114.848 256 256c0 135.744-106.304 246.864-240 255.184v48.816h-32v-48.816c-133.696-8.32-240-119.44-240-255.184zM512 352c123.52 0 224-100.48 224-224s-100.48-224-224-224-224 100.48-224 224 100.48 224 224 224zM644.688 724.688l22.624 24.976-144 146.336h-22.624l-144-146.336 22.624-23.808 123.312 122.144h18.752z" />
<glyph unicode="&#xe925;" glyph-name="arrows_drag_up" d="M528 383.184v458.192l116.688-116.688 22.624 24.976-144 146.336h-22.624l-144-146.336 22.624-23.792 116.688 115.504v-458.192c-133.696-8.32-240-119.44-240-255.184 0-141.152 114.848-256 256-256s256 114.848 256 256c0 135.744-106.304 246.864-240 255.184zM512-96c-123.52 0-224 100.48-224 224s100.48 224 224 224 224-100.48 224-224-100.48-224-224-224z" />
<glyph unicode="&#xe926;" glyph-name="arrows_drag_vert" d="M0 272h1024v-32h-1024v32zM0 400h1024v-32h-1024v32zM0 528h1024v-32h-1024v32z" />
<glyph unicode="&#xe927;" glyph-name="arrows_exclamation" d="M512 896c-136.752 0-265.328-53.28-362.016-150-96.72-96.672-149.984-225.248-149.984-362s53.264-265.328 149.984-362.016c96.688-96.72 225.264-149.984 362.016-149.984s265.328 53.28 362.032 150c96.704 96.672 149.968 225.248 149.968 362s-53.264 265.328-149.984 362.016c-96.688 96.72-225.264 149.984-362.016 149.984zM851.408 44.608c-90.672-90.672-211.2-140.608-339.408-140.608s-248.736 49.936-339.392 140.624c-90.672 90.64-140.608 211.168-140.608 339.376s49.936 248.736 140.608 339.392c90.656 90.672 211.184 140.608 339.392 140.608s248.736-49.952 339.408-140.624c90.672-90.64 140.592-211.168 140.592-339.376s-49.92-248.736-140.592-339.392zM496 624h32v-352h-32v352zM496 208h32v-64h-32v64z" />
<glyph unicode="&#xe928;" glyph-name="liquid_round_dollar" d="M512-128c-282.77 0-512 229.23-512 512s229.23 512 512 512c282.77 0 512-229.23 512-512s-229.23-512-512-512zM512-42.667c235.641 0 426.667 191.025 426.667 426.667s-191.025 426.667-426.667 426.667c-235.641 0-426.667-191.025-426.667-426.667s191.025-426.667 426.667-426.667zM469.333 725.333h85.333v-682.667h-85.333zM676.552 625.38l37.391-20.552-41.104-74.781-37.391 20.552c-30.522 16.777-95.136 29.55-145.843 25.916-53.547-3.837-77.957-21.045-77.957-53.080 0-40.050 24.698-58.16 109.149-86.306 4.671-1.554 4.671-1.554 9.389-3.122 113.3-37.667 158.113-68.425 158.113-150.316 0-87.104-55.372-139.451-141.802-152.408-64.218-9.628-145.41 2.499-219.646 29.288l-40.133 14.483 28.965 80.267 40.133-14.483c61.954-22.357 129.483-32.443 178.029-25.165 47.813 7.168 69.121 27.312 69.121 68.018 0 28.798-20.899 43.142-99.7 69.34-4.695 1.56-4.695 1.56-9.449 3.142-117.277 39.086-167.501 75.913-167.501 167.262 0 86.157 64.382 131.544 157.19 138.195 66.552 4.769 147.552-11.242 193.047-36.25z" />
<glyph unicode="&#xe929;" glyph-name="ld-cart" horiz-adv-x="725" d="M650.667 569.043h-576v-603.826h576v603.826zM714.667 633.043v-731.826h-704v731.826h704zM249.212 512h-64v192.928c0 99.495 79.301 180.406 177.455 180.406s177.455-80.91 177.455-180.406v-192.928h-64v192.928c0 64.434-50.939 116.406-113.455 116.406s-113.455-51.972-113.455-116.406v-192.928z" />
<glyph unicode="&#xe92a;" glyph-name="ld-search" horiz-adv-x="839" d="M826.206 56.241l-228.725 224.751c46.68 56.186 74.685 131.105 74.685 210.702 0 182.609-149.371 337.122-336.084 337.122s-336.084-149.831-336.084-337.122c0-182.609 149.371-337.122 336.084-337.122 74.685 0 144.702 23.411 200.72 65.549l228.725-224.751c9.338-9.363 18.672-14.048 28.005-14.048s23.336 4.685 28.005 14.048c23.336 18.726 23.336 46.823 4.669 60.871zM84.020 491.694c0 140.468 112.028 252.844 252.061 252.844s252.061-112.373 252.061-252.844c0-140.468-112.028-252.844-252.061-252.844-140.033 4.685-252.061 117.057-252.061 252.844z" />
<glyph unicode="&#xe92b;" glyph-name="arrows_expand" d="M32 841.376l308.688-308.688 22.624 22.624-308.688 308.688h137.376v32h-176l-16-16v-176h32zM192-128v32h-137.376l308.688 308.688-22.624 22.624-308.688-308.688v137.376h-32v-176l16-16zM992-73.376l-308.688 308.688-22.624-22.624 308.688-308.688h-137.376v-32h176l16 16v176h-32zM832 896v-32h137.376l-308.688-308.688 22.624-22.624 308.688 308.688v-137.376h32v176l-16 16z" />
<glyph unicode="&#xe92c;" glyph-name="arrow-up-material" horiz-adv-x="793" d="M3.906 384l392.594 392.594 392.594-392.594-69.353-69.353-275.049 273.874v-597.115h-96.386v597.115l-275.049-273.874z" />
<glyph unicode="&#xe92d;" glyph-name="arrow-left-material" horiz-adv-x="793" d="M396.5-8.594l-392.594 392.594 392.594 392.594 69.353-69.353-273.874-275.049h597.115v-96.386h-597.115l273.874-275.049z" />
<glyph unicode="&#xe92e;" glyph-name="arrows_glide_horizontal" d="M724.688 644.688l260.688-260.688-260.688-260.688 24.976-22.624 274.336 272v22.624l-274.336 272zM274.336 668.352l-274.336-272v-22.624l274.336-272 23.808 22.624-260.112 260.688 259.808 260.688zM512 480c-52.944 0-96-43.056-96-96s43.056-96 96-96 96 43.056 96 96-43.056 96-96 96zM512 320c-35.296 0-64 28.704-64 64s28.704 64 64 64 64-28.704 64-64-28.704-64-64-64z" />
<glyph unicode="&#xe92f;" glyph-name="arrows_glide_vertical" d="M511.472-88.864l-260.672 260.704-22.624-25.232 271.984-274.608h22.624l272.016 274.608-22.624 23.92zM501.2 896l-272-274.080 22.624-23.664 260.688 260.16 260.688-260.96 22.624 24.592-272 273.952zM607.488 384.512c0 52.944-43.056 96-96 96s-96-43.056-96-96 43.056-96 96-96 96 43.072 96 96zM447.488 384.512c0 35.296 28.704 64 64 64s64-28.704 64-64-28.704-64-64-64-64 28.72-64 64z" />
<glyph unicode="&#xe930;" glyph-name="arrows_glide" d="M511.472-88.864l-212.16 212.176-22.624-25.232 223.472-226.080h22.624l224.016 226.608-22.624 23.92zM501.2 896l-224.512-226.608 22.624-23.664 213.2 212.688 212.688-212.96 22.624 24.592-224 225.952zM607.488 384.512c0 52.944-43.056 96-96 96s-96-43.056-96-96 43.056-96 96-96 96 43.072 96 96zM447.488 384.512c0 35.296 28.704 64 64 64s64-28.704 64-64-28.704-64-64-64-64 28.72-64 64zM772.688 596.688l212.688-212.688-212.688-212.688 24.976-22.624 226.336 224v22.624l-226.336 224zM250.8 597.2l-24.976 22.624-225.824-223.472v-22.624l226.864-224.528 23.792 22.624-212.624 213.216z" />
<glyph unicode="&#xe931;" glyph-name="arrows_hamburger-2" d="M192 576h640v-32h-640v32zM192 384h640v-32h-640v32zM192 192h640v-32h-640v32z" />
<glyph unicode="&#xe932;" glyph-name="arrows_hamburger1" d="M0 576h96v-32h-96v32zM256 576h768v-32h-768v32zM0 384h96v-32h-96v32zM256 384h768v-32h-768v32zM0 192h96v-32h-96v32zM256 192h768v-32h-768v32z" />
<glyph unicode="&#xe933;" glyph-name="arrows_horizontal" d="M114.336 507.312l-114.336-112v-22.624l114.336-112 23.808 22.624-83.52 84.688h914.752l-84.688-84.688 24.976-22.624 114.336 112v22.624l-114.336 112-23.808-22.624 83.52-84.688h-914.752l83.52 84.688z" />
<glyph unicode="&#xe934;" glyph-name="arrows_info" d="M512 896c-136.768 0-265.328-53.28-362.032-150-96.72-96.672-149.984-225.248-149.984-362s53.264-265.328 149.984-362.016c96.704-96.72 225.264-149.984 362.032-149.984 136.752 0 265.328 53.28 362.032 150 96.72 96.688 149.984 225.264 149.984 362.016s-53.264 265.328-149.984 362.016c-96.704 96.704-225.28 149.968-362.032 149.968zM851.408 44.608c-90.656-90.672-211.2-140.608-339.408-140.608-128.224 0-248.752 49.936-339.408 140.624-90.672 90.64-140.608 211.168-140.608 339.376s49.936 248.736 140.608 339.392c90.656 90.672 211.184 140.608 339.408 140.608 128.208 0 248.752-49.952 339.408-140.624 90.672-90.64 140.608-211.168 140.608-339.376s-49.936-248.736-140.608-339.392zM496 496h32v-352h-32v352zM496 624h32v-64h-32v64z" />
<glyph unicode="&#xe935;" glyph-name="arrow-down-material" horiz-adv-x="793" d="M789.094 384l-392.594-392.594-392.594 392.594 69.353 69.353 275.049-273.874v597.115h96.386v-597.115l275.049 273.874z" />
<glyph unicode="&#xe936;" glyph-name="arrow-right-material" horiz-adv-x="800" d="M400 780.501l396.501-396.501-396.501-396.501-70.045 70.045 276.598 277.785h-603.055v97.346h603.055l-276.598 277.785z" />
<glyph unicode="&#xe937;" glyph-name="num-10" horiz-adv-x="957" d="M-0.001 637.028l251.943 111.373v-715.823h-133.004v533.081l-118.942-47.581v118.942zM420.899 386.167c0 203.283 57.312 366.56 262.759 366.56s259.515-163.277 259.515-366.56c0-201.128-54.069-364.405-259.515-364.405s-262.759 163.277-262.759 364.405zM553.894 386.167c0-128.673 28.119-234.645 129.76-234.645 99.48 0 127.593 105.967 127.593 234.645 0 129.76-28.119 236.81-127.593 236.81-101.641 0-129.76-107.052-129.76-236.81z" />
<glyph unicode="&#xe938;" glyph-name="num-9" horiz-adv-x="496" d="M136.207 518.045c-2.167-59.457 44.319-108.094 103.772-109.183s109.183 45.404 110.26 104.855c0 61.612-47.559 109.183-105.939 110.26-59.457 1.077-107.016-46.481-108.094-105.939zM217.282 285.627c-110.26 0-218.355 89.719-217.276 239.978 2.167 132.956 104.855 228.085 249.704 225.927 130.801-2.167 231.329-95.129 244.305-244.305 17.297-220.52-19.456-494.009-274.567-485.362-82.153 3.244-163.229 29.184-212.955 137.289l122.147 51.891c22.696-46.481 58.369-64.856 95.129-64.856 101.616 0 143.768 105.939 137.289 219.443-12.976-36.749-68.1-79.993-143.768-79.993z" />
<glyph unicode="&#xe939;" glyph-name="num-8" horiz-adv-x="523" d="M180.569 555.932c0-41.094 30.273-76.774 81.1-76.774 49.737 0 77.856 36.761 77.856 76.774 0 37.85-30.273 73.53-78.933 73.53s-80.017-35.684-80.017-73.53zM131.911 266.139c0-64.88 58.392-118.941 128.672-118.941 69.201 0 127.593 54.068 127.593 118.941 0 60.556-54.068 116.784-120.028 116.784h-19.464c-65.957 0-116.784-57.312-116.784-116.784zM51.898 560.253c0 105.967 91.909 192.473 208.693 192.473 115.698 0 208.693-86.505 208.693-192.473 0-49.737-20.541-90.832-52.981-121.105 63.799-36.761 103.808-100.564 103.808-177.331 0-133.004-115.698-240.052-259.514-240.052-144.891 0-260.597 107.052-260.597 240.052 0 77.856 41.094 140.569 103.808 177.331-31.363 30.273-51.904 72.445-51.904 121.105z" />
<glyph unicode="&#xe93a;" glyph-name="num-7" horiz-adv-x="555" d="M-0.001 732.028h548.362l-358.327-748.709h-160.275l296.512 617.053h-326.273z" />
<glyph unicode="&#xe93b;" glyph-name="num-6" horiz-adv-x="507" d="M361.588 256.395c1.077 59.476-44.339 108.141-103.808 109.219s-109.219-46.498-110.296-105.975c0-60.559 47.583-109.219 105.975-109.219 59.476-1.077 107.052 45.416 108.141 105.975zM279.398 488.897c111.385 0 219.515-89.755 218.437-240.068-2.167-133.004-104.897-228.169-250.877-227.092-129.76 2.167-231.413 96.243-243.312 245.467-17.297 219.515 19.464 493.102 274.667 485.535 82.188-3.244 163.289-29.196 213.027-137.337l-122.195-51.904c-22.708 46.498-58.392 64.88-95.165 64.88-101.653 0-143.825-107.052-137.337-219.515 12.976 35.684 68.124 80.023 142.737 80.023z" />
<glyph unicode="&#xe93c;" glyph-name="num-5" horiz-adv-x="539" d="M393.886 275.309c0 81.793-60.27 121.607-135.6 121.607-48.432 0-109.768-15.071-161.426-71.032l-75.329 45.2 59.193 366.975h400.336v-121.607h-294.872l-24.755-144.207c29.052 24.755 85.013 37.671 130.213 37.671 128.065 0 233.529-81.793 233.529-234.607 0-148.516-110.845-251.82-280.884-251.82-97.929 0-194.788 59.193-244.291 148.516 9.684 5.382 101.161 63.491 110.845 68.877 27.98-51.652 80.716-87.168 133.445-87.168 93.631 0 149.591 57.039 149.591 121.607z" />
<glyph unicode="&#xe93d;" glyph-name="num-4" horiz-adv-x="622" d="M208.128 265.903h169.55v266.595l-169.55-266.595zM622.057 140.794h-101.73v-166.038h-142.649v166.038h-377.679l381.184 598.671h139.148v-473.561h101.73v-125.11z" />
<glyph unicode="&#xe93e;" glyph-name="num-3" horiz-adv-x="523" d="M249.425 345.627h-79.012v123.031h79.012c69.981-1.125 83.525 62.079 83.525 81.264 0 27.088-12.419 73.367-65.465 83.525-42.893 5.647-84.65-7.897-113.999-45.146l-108.352 71.106c41.76 69.981 127.543 115.124 223.486 109.487 126.417-6.772 213.328-97.069 213.328-206.556 0-60.948-38.373-113.999-91.422-144.473 77.878-29.349 130.929-121.896 123.031-200.909-13.544-134.315-141.087-220.1-284.434-209.942-101.58 6.772-189.623 69.981-229.123 155.758 10.158 5.647 110.613 55.306 120.771 60.948 21.441-44.018 68.852-82.398 119.645-82.398 69.981 0 124.157 45.146 124.157 109.487 0 19.191-14.669 98.194-115.124 94.808z" />
<glyph unicode="&#xe93f;" glyph-name="arrows_left_double-32" d="M538.288 645.712l-24.464 22.624-273.824-272v-22.624l273.824-272 23.536 22.624-260.224 260.688zM753.824 668.336l-273.824-272v-22.624l273.824-272 23.536 22.624-260.224 260.688 260 260.688z" />
<glyph unicode="&#xe940;" glyph-name="arrows_left" d="M578.336 667.312l-274.336-272v-22.624l274.336-272 23.808 22.624-260.112 260.688 259.808 260.688z" />
<glyph unicode="&#xe941;" glyph-name="arrows_minus" d="M224 416h576v-32h-576v32z" />
<glyph unicode="&#xe942;" glyph-name="arrows_move_bottom" d="M523.312 64l112 114.336-22.624 23.808-84.688-83.52v697.376h-32v-697.376l-84.688 84.688-22.624-24.976 112-114.336zM0-32h1024v-32h-1024v32z" />
<glyph unicode="&#xe943;" glyph-name="arrows_move_left" d="M331.312 283.312l-84.688 84.688h697.376v32h-697.376l84.688 84.688-24.976 22.624-114.336-112v-22.624l114.336-112zM64 896h32v-1024h-32v1024z" />
<glyph unicode="&#xe944;" glyph-name="arrows_move_right" d="M692.688 283.312l24.976-22.624 114.336 112v22.624l-114.336 112-23.808-22.624 83.52-84.688h-697.376v-32h697.376zM928 896h32v-1024h-32v1024z" />
<glyph unicode="&#xe945;" glyph-name="arrows_move_top" d="M528-48v697.376l84.688-84.688 22.624 24.976-112 114.336h-22.624l-112-114.336 22.624-23.808 84.688 83.52v-697.376zM0 832h1024v-32h-1024v32z" />
<glyph unicode="&#xe946;" glyph-name="arrows_move" d="M139.312 484.688l-24.976 22.624-114.336-112v-22.624l114.336-112 23.808 22.624-83.52 84.688h377.376v32h-377.376zM592 368h377.376l-84.688-84.688 24.976-22.624 114.336 112v22.624l-114.336 112-23.808-22.624 83.52-84.688h-377.376zM500.688 896l-112-114.336 22.624-23.808 84.688 83.52v-377.376h32v377.376l84.688-84.688 22.624 24.976-112 114.336zM496 304v-377.376l-84.688 84.688-22.624-24.976 112-114.336h22.624l112 114.336-22.624 23.808-84.688-83.52v377.376z" />
<glyph unicode="&#xe947;" glyph-name="arrows_move2" d="M0 372.688l114.336-112 23.808 22.624-83.52 84.688h441.376v-441.376l-84.688 84.688-22.624-24.976 112-114.336h22.624l112 114.336-22.624 23.808-84.688-83.52v441.376h441.376l-84.688-84.688 24.976-22.624 114.336 112v22.624l-114.336 112-23.808-22.624 83.52-84.688h-441.376v441.376l84.688-84.688 22.624 24.976-112 114.336h-22.624l-112-114.336 22.624-23.808 84.688 83.52v-441.376h-441.376l84.688 84.688-24.976 22.624-114.336-112z" />
<glyph unicode="&#xe948;" glyph-name="arrows_plus" d="M496 672v-272h-272v-32h272v-272h32v272h272v32h-272v272z" />
<glyph unicode="&#xe949;" glyph-name="arrows_question" d="M512 896c-136.768 0-265.328-53.28-362.032-150-96.72-96.672-149.984-225.248-149.984-362s53.264-265.328 149.984-362.016c96.704-96.72 225.264-149.984 362.032-149.984 136.752 0 265.328 53.28 362.032 150 96.72 96.688 149.984 225.264 149.984 362.016s-53.264 265.328-149.984 362.016c-96.704 96.704-225.28 149.968-362.032 149.968zM851.408 44.608c-90.656-90.672-211.2-140.608-339.408-140.608-128.224 0-248.752 49.936-339.408 140.624-90.672 90.64-140.608 211.168-140.608 339.376s49.936 248.736 140.608 339.392c90.656 90.672 211.184 140.608 339.408 140.608 128.208 0 248.752-49.952 339.408-140.624 90.672-90.64 140.608-211.168 140.608-339.376s-49.936-248.736-140.608-339.392zM464 208h32v-64h-32v64zM512 656c-95.552 0-144-32.304-144-96h32c0 29.792 12.736 64 112 64 68.032 0 112-37.68 112-96 0-44.224-62.928-85.52-87.152-97.68-2.976-1.504-72.848-37.632-72.848-142.32v-16h32v16c0 84.144 52.992 112.576 55.152 113.68 4.288 2.144 104.848 53.28 104.848 126.32 0 75.36-59.216 128-144 128z" />
<glyph unicode="&#xe94a;" glyph-name="arrows_remove" d="M707.792 634.384l-195.952-197.424-197.424 195.952-22.528-22.72 197.424-195.936-195.952-197.44 22.72-22.544 195.952 197.424 197.424-195.952 22.528 22.72-197.424 195.936 195.952 197.44z" />
<glyph unicode="&#xe94b;" glyph-name="arrows_right_double-31" d="M484.688 644.688l260.688-260.688-260.688-260.688 24.976-22.624 274.336 272v22.624l-274.336 272zM544 395.312l-274.336 272-23.808-22.624 260.112-260.688-260.976-260.688 24.816-22.624 274.192 272z" />
<glyph unicode="&#xe94c;" glyph-name="arrows_right" d="M720 395.312l-274.336 272-23.808-22.624 260.112-260.688-260.976-260.688 24.816-22.624 274.192 272z" />
<glyph unicode="&#xe94d;" glyph-name="arrows_rotate_anti_dashed" d="M496 896c-10.88 0-22-0.368-33.024-1.088l2.112-31.936c10.288 0.688 20.592 1.024 30.912 1.024v32zM6.576 319.12l31.584 5.216c-3.488 21.072-5.504 42.672-6.016 64.144l-31.984-0.752c0.528-22.96 2.688-46.048 6.416-68.608zM0.496 422.192l31.968-1.44c0.96 21.424 3.424 42.976 7.328 64.064l-31.472 5.808c-4.144-22.512-6.784-45.552-7.824-68.432zM15.776 524.304l30.992-8c5.36 20.8 12.224 41.376 20.4 61.12l-29.584 12.224c-8.72-21.136-16.064-43.12-21.808-65.344zM125.505 121.081l47.171-47.184-22.63-22.624-47.171 47.184 22.63 22.624zM428.688 891.456c-22.704-3.104-45.408-7.808-67.44-14l8.656-30.816c20.624 5.792 41.856 10.208 63.104 13.088l-4.32 31.728zM328.416 866.96c-21.6-7.728-42.816-17.040-63.088-27.712l14.896-28.32c18.96 9.952 38.8 18.672 58.976 25.904l-10.784 30.128zM47.472 187.904c9.808-20.72 21.168-40.928 33.744-60.064l26.736 17.6c-11.776 17.888-22.384 36.784-31.568 56.16l-28.912-13.696zM51.856 621.024l28.656-14.256c9.52 19.136 20.512 37.824 32.672 55.536l-26.368 18.128c-13.008-18.928-24.768-38.912-34.96-59.408zM13.328 285.328c5.28-22.288 12.176-44.4 20.496-65.744l29.808 11.632c-7.792 19.968-14.24 40.656-19.168 61.504l-31.136-7.392zM252.256 794.944l-16.848 27.216c-19.504-12.080-38.304-25.616-55.904-40.256l20.448-24.592c16.464 13.68 34.048 26.352 52.304 37.632zM145.296 750.72c-13.44-13.456-26.224-27.76-37.984-42.56l25.056-19.904c11.008 13.84 22.96 27.248 35.584 39.872 2.624 2.64 5.264 5.2 7.936 7.744l-22.096 23.152c-2.864-2.72-5.712-5.504-8.496-8.304zM528-96v-32c10.88 0 22 0.368 33.024 1.088l-2.112 31.936c-10.288-0.688-20.592-1.024-30.912-1.024zM990.16 548.416l-29.808-11.632c7.792-19.968 14.24-40.656 19.168-61.504l31.136 7.376c-5.264 22.304-12.16 44.416-20.496 65.76zM1008.224 243.696l-30.992 8c-5.36-20.8-12.224-41.376-20.4-61.12l29.584-12.224c8.72 21.136 16.064 43.12 21.808 65.344zM985.856 443.664c3.488-21.072 5.504-42.672 6.016-64.144l31.984 0.752c-0.544 22.976-2.704 46.048-6.432 68.608l-31.568-5.216zM984.192 283.184l31.472-5.808c4.16 22.512 6.8 45.552 7.84 68.432l-31.968 1.44c-0.96-21.424-3.44-42.96-7.344-64.064zM788.592-54.16c19.504 12.080 38.304 25.616 55.904 40.256l-20.448 24.592c-16.464-13.664-34.048-26.336-52.304-37.632l16.848-27.216zM870.208 8.976c2.864 2.736 5.712 5.52 8.496 8.32 13.44 13.456 26.224 27.76 37.984 42.56l-25.056 19.904c-11.008-13.84-22.96-27.248-35.584-39.872-2.624-2.64-5.264-5.2-7.936-7.744l22.096-23.168zM972.144 146.976l-28.656 14.256c-9.52-19.136-20.512-37.824-32.672-55.536l26.368-18.128c13.008 18.928 24.768 38.912 34.96 59.408zM654.080-78.64c-20.624-5.792-41.856-10.208-63.104-13.088l4.336-31.712c22.704 3.104 45.408 7.808 67.44 14l-8.672 30.8zM743.776-42.928c-18.96-9.952-38.8-18.672-58.976-25.904l10.784-30.128c21.6 7.728 42.816 17.040 63.088 27.712l-14.896 28.32zM976.528 580.096c-9.808 20.72-21.168 40.928-33.744 60.064l-26.736-17.6c11.776-17.888 22.384-36.784 31.568-56.16l28.912 13.696zM898.514 646.979l-47.171 47.184 22.63 22.624 47.171-47.184-22.63-22.624zM32 32v-32h176l16 16v176h-32v-146.752l-13.248-13.248zM800 752v-176h32v146.752l13.248 13.248h146.752v32h-176z" />
<glyph unicode="&#xe94e;" glyph-name="arrows_rotate_anti" d="M99.168 102.384l70.208-70.384h-137.376v-32h176l16 16v176h-32v-137.44l-67.936 67.952c-137.104 183.248-118.336 443.392 43.856 605.584 87.632 87.632 204.144 135.904 328.080 135.904v32c-132.48 0-257.024-51.6-350.704-145.28-173.664-173.664-193.504-452.384-46.128-648.336zM854.624 736h137.376v32h-176l-16-16v-176h32v137.44l67.936-67.952c137.104-183.248 118.336-443.392-43.856-605.584-87.632-87.632-204.144-135.904-328.080-135.904v-32c132.48 0 257.024 51.6 350.704 145.28 173.664 173.664 193.504 452.368 46.128 648.336l-70.208 70.384z" />
<glyph unicode="&#xe94f;" glyph-name="arrows_rotate_dashed" d="M528 896v-32c10.304 0 20.608-0.336 30.912-1.024l2.128 31.92c-10.912 0.736-22.032 1.104-33.040 1.104zM595.296 891.44l-4.32-31.696c21.264-2.896 42.496-7.312 63.104-13.104l8.656 30.8c-22 6.192-44.704 10.896-67.44 14zM1010.656 285.328l-31.12 7.376c-4.976-20.912-11.424-41.616-19.184-61.504l29.808-11.648c8.304 21.296 15.2 43.424 20.496 65.776zM1023.856 387.728l-32 0.768c-0.496-21.408-2.528-42.992-6-64.16l31.568-5.184c3.712 22.624 5.888 45.696 6.432 68.576zM873.911 51.219l-22.627 22.627 47.178 47.178 22.627-22.627-47.178-47.178zM695.584 866.944l-10.784-30.128c20.176-7.232 40.032-15.952 59.008-25.904l14.88 28.336c-20.304 10.656-41.536 19.968-63.104 27.696zM976.512 187.92l-28.928 13.68c-9.152-19.344-19.776-38.256-31.568-56.16l26.72-17.6c12.608 19.168 23.968 39.376 33.776 60.080zM984.176 484.784c3.904-21.072 6.368-42.624 7.344-64.048l31.968 1.44c-1.024 22.896-3.664 45.92-7.84 68.432l-31.472-5.824zM910.816 662.32c12.144-17.664 23.12-36.352 32.656-55.536l28.656 14.256c-10.208 20.512-21.952 40.496-34.944 59.408l-26.368-18.128zM956.816 577.408c8.176-19.792 15.024-40.352 20.384-61.136l31.008 7.984c-5.728 22.224-13.056 44.208-21.792 65.36l-29.6-12.208zM870.208 759.008l-22.096-23.136c2.688-2.576 5.36-5.184 7.968-7.776 12.576-12.56 24.528-25.968 35.552-39.824l25.056 19.904c-11.776 14.816-24.56 29.136-38.032 42.608-2.816 2.768-5.616 5.52-8.448 8.224zM771.744 794.944c18.176-11.232 35.76-23.904 52.304-37.632l20.432 24.608c-17.664 14.672-36.464 28.208-55.888 40.24l-16.848-27.216zM832 45.248v146.752h-32v-176l16-16h176v32h-146.752zM496-96c-10.304 0-20.608 0.336-30.912 1.024l-2.128-31.92c10.912-0.736 22.032-1.104 33.040-1.104v32zM179.52-13.92c17.664-14.672 36.464-28.208 55.888-40.24l16.848 27.216c-18.176 11.232-35.76 23.904-52.304 37.632l-20.432-24.608zM0.512 345.824c1.024-22.896 3.664-45.92 7.84-68.432l31.472 5.824c-3.904 21.072-6.368 42.624-7.344 64.048l-31.968-1.44zM15.792 243.728c5.728-22.224 13.056-44.208 21.792-65.36l29.6 12.224c-8.176 19.792-15.024 40.352-20.384 61.136l-31.008-8zM44.464 475.296c4.976 20.912 11.424 41.616 19.184 61.504l-29.808 11.648c-8.32-21.28-15.2-43.408-20.496-65.776l31.12-7.376zM280.208-42.912l-14.88-28.336c20.288-10.656 41.52-19.984 63.088-27.696l10.784 30.128c-20.176 7.216-40.032 15.936-58.992 25.904zM0.144 380.272l32-0.768c0.496 21.408 2.528 42.992 6 64.16l-31.568 5.184c-3.712-22.624-5.888-45.696-6.432-68.576zM47.488 580.080l28.928-13.68c9.152 19.344 19.776 38.256 31.568 56.16l-26.72 17.6c-12.608-19.168-23.968-39.376-33.776-60.080zM51.872 146.976c10.208-20.512 21.952-40.496 34.944-59.408l26.368 18.128c-12.144 17.664-23.12 36.352-32.656 55.536l-28.656-14.256zM153.792 8.992l22.096 23.136c-2.688 2.576-5.36 5.184-7.968 7.776-12.576 12.56-24.528 25.968-35.552 39.824l-25.056-19.888c11.776-14.816 24.56-29.136 38.032-42.608 2.816-2.784 5.616-5.536 8.448-8.24zM125.539 646.961l-22.627 22.627 47.178 47.178 22.627-22.627-47.178-47.178zM369.904-78.64l-8.656-30.8c22.016-6.208 44.72-10.912 67.456-14l4.32 31.696c-21.28 2.912-42.512 7.312-63.12 13.104zM32 768v-32h146.752l13.248-13.248v-146.752h32v176l-16 16z" />
<glyph unicode="&#xe950;" glyph-name="arrows_rotate" d="M528 864c123.936 0 240.448-48.272 328.080-135.904 162.208-162.192 180.96-422.336 43.84-605.584l-67.92-67.936v137.424h-32v-176l16-16h176v32h-137.312l68.672 68.688 1.472 1.696c147.376 195.952 127.552 474.672-46.128 648.336-93.68 93.68-218.224 145.28-350.704 145.28v-32zM124.080 645.488l67.92 67.936v-137.424h32v176l-16 16h-176v-32h137.312l-68.672-68.688-1.472-1.696c-147.376-195.952-127.536-474.672 46.128-648.336 93.68-93.68 218.224-145.28 350.704-145.28v32c-123.936 0-240.448 48.272-328.080 135.904-162.208 162.192-180.944 422.336-43.84 605.584z" />
<glyph unicode="&#xe951;" glyph-name="num-2" horiz-adv-x="496" d="M475.366-11.197h-471.976v71.134l301.479 361.316c25.967 30.48 45.164 63.237 45.164 97.107 0 49.683-42.906 88.070-106.143 88.070-59.848 0-106.143-44.035-115.173-107.272l-128.717 23.711c21.455 134.364 118.557 217.915 249.542 217.915 129.846 0 238.248-90.329 238.248-222.434 0-71.134-32.74-136.623-79.034-188.565l-182.917-208.89h249.542v-132.105z" />
<glyph unicode="&#xe952;" glyph-name="arrows_shrink_diagonal2" d="M736 416v32h-137.376l420.688 420.688-22.624 22.624-420.688-420.688v137.376h-32v-176l16-16zM27.312-123.312l420.688 420.688v-137.376h32v176l-16 16h-176v-32h137.376l-420.688-420.688z" />
<glyph unicode="&#xe953;" glyph-name="arrows_shrink_horizonal2" d="M731.312 484.688l-24.976 22.624-114.336-112v-22.624l114.336-112 23.808 22.624-83.52 84.688h377.376v32h-377.376zM292.688 484.688l84.688-84.688h-377.376v-32h377.376l-84.688-84.688 24.976-22.624 114.336 112v22.624l-114.336 112z" />
<glyph unicode="&#xe954;" glyph-name="num-1" horiz-adv-x="272" d="M0 629.125l273.272 120.805v-776.411h-144.255v578.208l-129.006-51.607z" />
<glyph unicode="&#xe955;" glyph-name="md-add-circle-outline" d="M726 342h-172v-172h-84v172h-172v84h172v172h84v-172h172v-84zM512 716c88.6 0 172-34.6 234.8-97.2 62.6-62.8 97.2-146.2 97.2-234.8s-34.6-172-97.2-234.8c-62.8-62.6-146.2-97.2-234.8-97.2s-172 34.6-234.8 97.2c-62.6 62.8-97.2 146.2-97.2 234.8s34.6 172 97.2 234.8c62.8 62.6 146.2 97.2 234.8 97.2zM512 800c-229.8 0-416-186.2-416-416s186.2-416 416-416 416 186.2 416 416-186.2 416-416 416z" />
<glyph unicode="&#xe956;" glyph-name="arrows_shrink_vertical2" d="M528 518.624v377.376h-32v-377.376l-84.688 84.688-22.624-24.976 112-114.336h22.624l112 114.336-22.624 23.808zM500.688 304l-112-114.336 22.624-23.808 84.688 83.52v-377.376h32v377.376l84.688-84.688 22.624 24.976-112 114.336z" />
<glyph unicode="&#xe957;" glyph-name="arrows_shrink" d="M27.312-123.312l324.688 324.688v-137.376h32v176l-16 16h-176v-32h137.376l-324.688-324.688zM640 64h32v137.376l324.688-324.688 22.624 22.624-324.688 324.688h137.376v32h-176l-16-16zM640 704v-176l16-16h176v32h-137.376l324.688 324.688-22.624 22.624-324.688-324.688v137.376zM192 512h176l16 16v176h-32v-137.376l-324.688 324.688-22.624-22.624 324.688-324.688h-137.376z" />
<glyph unicode="&#xe958;" glyph-name="md-add-circle" d="M512 800c-229.75 0-416-186.25-416-416s186.25-416 416-416 416 186.25 416 416-186.25 416-416 416zM726 342h-172v-172h-84v172h-172v84h172v172h84v-172h172v-84z" />
<glyph unicode="&#xe959;" glyph-name="md-add" d="M832 341.334h-277.334v-277.334h-85.332v277.334h-277.334v85.332h277.334v277.334h85.332v-277.334h277.334v-85.332z" />
<glyph unicode="&#xe95a;" glyph-name="md-airplane" d="M896 224v80l-320 208v225.6c0 35.4-29.6 62.4-64 62.4s-64-27-64-62.4v-225.6l-320-208v-80l320 96v-227.2l-96-62.4v-62.4l160 32 160-32v62.4l-96 62.4v227.2l320-96z" />
<glyph unicode="&#xe95b;" glyph-name="md-alarm" d="M940 646.326l-196.886 163.56-55.628-65.862 196.884-163.538 55.63 65.84zM334.384 746.162l-55.652 65.838-194.732-165.674 55.628-65.838 194.756 165.674zM533.402 550.744h-64.202v-254.892l203.298-121.078 32.102 53.106-171.2 99.834v223.030zM512 720.67c-214 0-385.202-172.042-385.202-382.332 0-210.298 171.202-382.338 385.202-382.338 211.872 0 385.202 172.040 385.202 382.338 0 210.288-173.33 382.332-385.202 382.332zM512 40.96c-164.786 0-299.6 133.812-299.6 297.376 0 163.554 134.814 297.368 299.6 297.368 164.788 0 299.6-133.812 299.6-297.368 0-165.678-134.812-297.376-299.6-297.376z" />
<glyph unicode="&#xe95c;" glyph-name="md-albums" d="M309.4-32h533.4c47 0 85.4 38.4 85.4 85.4v533.2c0 47-38.4 85.4-85.4 85.4h-533.4c-47 0-85.4-38.4-85.4-85.4v-533.4c0-46.8 38.4-85.2 85.4-85.2zM181.4 800h533.4c47 0 85.4-38.4 85.4-85.4v-10.6h-522.8c-47 0-85.4-38.4-85.4-85.4v-522.6h-10.6c-47 0-85.4 38.4-85.4 85.4v533.2c0 47 38.4 85.4 85.4 85.4z" />
<glyph unicode="&#xe95d;" glyph-name="md-alert" d="M512 800c-228.8 0-416-187.202-416-416s187.2-416 416-416 416 187.202 416 416-187.2 416-416 416zM560 176h-96v80h96v-80zM560 352h-96v256h96v-256z" />
<glyph unicode="&#xe95e;" glyph-name="md-american-football" d="M64 384c28.2-70 72.4-132 128-181.2v362.4c-55.6-49.2-99.8-111.2-128-181.2zM960 384c-28.2 70-72.4 132-128 181.2v-362.4c55.6 49.2 99.8 111.2 128 181.2zM512 686c-94.2 0-182-26.8-256-73v-457.8c74-46.2 161.8-73 256-73s182 26.8 256 73v457.8c-74 46.2-161.8 73-256 73zM704 416v-128h-64v64h-96v-64h-64v64h-96v-64h-64v192h64v-64h96v64h64v-64h96v64h64v-64z" />
<glyph unicode="&#xe95f;" glyph-name="md-analytics" d="M758.8 539.4l-174.4-266.8c13.6-16.6 21.6-37.6 21.6-60.6 0-53-43-96-96-96s-96 43-96 96c0 6 0.6 12 1.6 17.8l-115.2 67c-17.2-16.6-40.6-26.8-66.6-26.8-17.2 0-33.2 4.6-47.2 12.4l-122.6-114.8v-114.4c0-47 38.4-85.4 85.4-85.4h725.4c47 0 85.4 38.4 85.4 85.4v425.2l-117.2 77.8c-16.2-12.6-36.6-20.2-58.8-20.2-8.8 0-17.4 1.2-25.4 3.4zM234 462c53 0 96-43 96-96 0-4.2-0.4-8.4-0.8-12.4l120.2-67.2c16.6 13.6 37.6 21.6 60.8 21.6 7.2 0 14.2-0.8 20.8-2.2l174.8 270.8c-11.2 15.6-17.8 34.8-17.8 55.6 0 53 43 96 96 96s96-43 96-96c0-7.8-1-15.4-2.6-22.6l82.6-55.2v160.2c0 47-38.4 85.4-85.4 85.4h-725.2c-47 0-85.4-38.4-85.4-85.4v-458.6l80 76.6c-3.8 10.4-6 21.6-6 33.4 0 53 43 96 96 96z" />
<glyph unicode="&#xe960;" glyph-name="md-aperture" d="M512 832c-247.424 0-448-200.576-448-448s200.576-448 448-448 448 200.576 448 448-200.576 448-448 448zM783.53 112.47c-72.53-72.526-168.96-112.47-271.53-112.47s-199 39.944-271.53 112.47c-72.526 72.53-112.47 168.96-112.47 271.53s39.944 199 112.47 271.53c72.53 72.526 168.96 112.47 271.53 112.47s199-39.944 271.53-112.47c72.526-72.53 112.47-168.96 112.47-271.53s-39.944-199-112.47-271.53zM400.086 683.866c-81.262-30.342-146.868-92.764-181.434-171.866h293.348l-111.914 171.866zM825.594 320c4.074 19.197 6.406 41.253 6.406 63.854 0 0.051 0 0.103 0 0.154v-0.008c0 73.248-24.628 140.734-66.032 194.668l-143.968-258.668h203.594zM719.946 627.21c-55.932 47.868-128.558 76.79-207.946 76.79-15.932 0-31.588-1.182-46.896-3.43l156.6-252.57 98.242 179.21zM198.408 448c-4.075-19.195-6.408-41.25-6.408-63.849 0-0.053 0-0.106 0-0.159v0.008c0-73.278 24.648-140.788 66.082-194.732l143.918 258.732h-203.592zM623.918 84.136c81.262 30.342 146.866 92.764 181.43 171.864h-293.348l111.918-171.864zM304.092 140.758c55.926-47.848 128.536-76.758 207.908-76.758 15.938 0 31.598 1.184 46.912 3.432l-156.584 252.568-98.236-179.242z" />
<glyph unicode="&#xe961;" glyph-name="md-apps" d="M192 544h160v160h-160v-160zM432 64h160v160h-160v-160zM192 64h160v160h-160v-160zM192 304h160v160h-160v-160zM432 304h160v160h-160v-160zM672 704v-160h160v160h-160zM432 544h160v160h-160v-160zM672 304h160v160h-160v-160zM672 64h160v160h-160v-160z" />
<glyph unicode="&#xe962;" glyph-name="md-appstore" d="M928 592h-208c0 114-93.124 207.718-208 207.718s-208-93.718-208-207.718h-208c37.376-432 26-624 26-624h779.998c-0.002 0-11.376 196 26.002 624zM512 747.79c86.016 0 155.998-69.79 155.998-155.79h-311.998c0 86 69.982 155.79 156 155.79zM408 100.72v337.546l285.998-168.774-285.998-168.772z" />
<glyph unicode="&#xe963;" glyph-name="md-archive" d="M907.188 695.998l-64.706 78.598c-11.544 16.15-32.316 25.404-53.154 25.404h-554.658c-20.832 0-41.602-9.254-53.152-25.404l-64.702-78.598c-13.88-13.844-20.816-34.668-20.816-57.77v-577.78c0-50.848 41.6-92.448 92.45-92.448h647.106c50.848 0 92.444 41.6 92.444 92.45v577.78c0 23.1-6.926 43.924-20.812 57.768zM512 129.782l-254.22 254.218h161.78v92.448h184.886v-92.448h161.78l-254.226-254.218zM193.068 707.558l36.972 46.222h554.662l43.93-46.222h-635.564z" />
<glyph unicode="&#xe964;" glyph-name="arrows_slim_down_dashed" d="M496 320h32v-64h-32v64zM496 608h32v-64h-32v64zM496 416h32v-64h-32v64zM496 512h32v-64h-32v64zM496 704h32v-64h-32v64zM496 896h32v-64h-32v64zM496 800h32v-64h-32v64zM496 224h32v-64h-32v64zM496 128h32v-64h-32v64zM496 32h32v-16h-32v16zM500.688-128h22.624l144 146.336-22.624 23.808-132.688-132.112-132.688 132.976-22.624-24.8z" />
<glyph unicode="&#xe965;" glyph-name="arrows_slim_down" d="M496 896v-969.376l-116.688 116.688-22.624-24.976 144-146.336h22.624l144 146.336-22.624 23.808-116.688-115.52v969.376z" />
<glyph unicode="&#xe966;" glyph-name="arrows_slim_left_dashed" d="M672 400h64v-32h-64v32zM576 400h64v-32h-64v32zM480 400h64v-32h-64v32zM768 400h64v-32h-64v32zM864 400h64v-32h-64v32zM960 400h64v-32h-64v32zM192 400h64v-32h-64v32zM288 400h64v-32h-64v32zM384 400h64v-32h-64v32zM96 400h64v-32h-64v32zM146.336 539.312l-146.336-144v-22.624l146.336-144 23.808 22.624-115.52 116.688h9.376v32h-9.376l115.52 116.688z" />
<glyph unicode="&#xe967;" glyph-name="arrows_slim_left" d="M171.312 516.688l-24.976 22.624-146.336-144v-22.624l146.336-144 23.808 22.624-115.52 116.688h969.376v32h-969.376z" />
<glyph unicode="&#xe968;" glyph-name="arrows_slim_right_dashed" d="M384 400h64v-32h-64v32zM96 400h64v-32h-64v32zM192 400h64v-32h-64v32zM288 400h64v-32h-64v32zM0 400h64v-32h-64v32zM864 400h64v-32h-64v32zM768 400h64v-32h-64v32zM672 400h64v-32h-64v32zM576 400h64v-32h-64v32zM480 400h64v-32h-64v32zM877.664 228.688l146.336 144v22.624l-146.336 144-23.808-22.624 115.52-116.688h-9.376v-32h9.376l-115.52-116.688z" />
<glyph unicode="&#xe969;" glyph-name="arrows_slim_right" d="M852.688 251.312l24.976-22.624 146.336 144v22.624l-146.336 144-23.808-22.624 115.52-116.688h-969.376v-32h969.376z" />
<glyph unicode="&#xe96a;" glyph-name="arrows_slim_up_dashed" d="M496 32h32v-64h-32v64zM496 608h32v-64h-32v64zM496 128h32v-64h-32v64zM496 320h32v-64h-32v64zM496 704h32v-64h-32v64zM496 224h32v-64h-32v64zM496 416h32v-64h-32v64zM496 800h32v-64h-32v64zM496-64h32v-64h-32v64zM496 512h32v-64h-32v64zM379.312 724.688l116.688 116.688v-9.376h32v9.376l116.688-116.688 22.624 24.976-144 146.336h-22.624l-144-146.336z" />
<glyph unicode="&#xe96b;" glyph-name="arrows_slim_up" d="M528-128v969.376l116.688-116.688 22.624 24.976-144 146.336h-22.624l-144-146.336 22.624-23.808 116.688 115.52v-969.376z" />
<glyph unicode="&#xe96c;" glyph-name="arrows_square_check" d="M400 198.624l-180.688 180.688-22.624-24.976 192-194.336h22.624l384 386.336-22.624 23.808zM0-128h1024v1024h-1024v-1024zM32 864h960v-960h-960v960z" />
<glyph unicode="&#xe96d;" glyph-name="arrows_square_down" d="M512 262.624l-260.688 260.688-22.624-24.976 272-274.336h22.624l272 274.336-22.624 23.808zM0-128h1024v1024h-1024v-1024zM32 864h960v-960h-960v960z" />
<glyph unicode="&#xe96e;" glyph-name="md-arrow-back" d="M854 426.75h-519.408l239.404 239.404-61.996 59.846-342-342 342-342 59.844 59.848-237.252 239.402h519.408v85.5z" />
<glyph unicode="&#xe96f;" glyph-name="md-arrow-down" d="M554.75 726v-519.408l239.404 239.404 59.846-61.996-342-342-342 342 59.848 59.844 239.402-237.252v519.408h85.5z" />
<glyph unicode="&#xe970;" glyph-name="arrows_square_left" d="M578.336 667.312l-274.336-272v-22.624l274.336-272 23.808 22.624-260.112 260.688 259.808 260.688zM0-128h1024v1024h-1024v-1024zM32 864h960v-960h-960v960z" />
<glyph unicode="&#xe971;" glyph-name="arrows_square_minus" d="M224 416h576v-32h-576v32zM0-128h1024v1024h-1024v-1024zM32 864h960v-960h-960v960z" />
<glyph unicode="&#xe972;" glyph-name="arrows_square_plus" d="M496 96h32v272h272v32h-272v272h-32v-272h-272v-32h272zM0 896v-1024h1024v1024h-1024zM992-96h-960v960h960v-960z" />
<glyph unicode="&#xe973;" glyph-name="arrows_square_remove" d="M730.512 611.84l-22.72 22.544-195.936-197.424-197.424 195.952-22.544-22.72 197.424-195.952-195.952-197.424 22.72-22.544 195.936 197.424 197.424-195.952 22.56 22.72-197.424 195.952zM0-128h1024v1024h-1024v-1024zM32 864h960v-960h-960v960z" />
<glyph unicode="&#xe974;" glyph-name="arrows_square_right" d="M420.688 644.688l260.688-260.688-260.688-260.688 24.976-22.624 274.336 272v22.624l-274.336 272zM0-128h1024v1024h-1024v-1024zM32 864h960v-960h-960v960z" />
<glyph unicode="&#xe975;" glyph-name="arrows_square_up" d="M500.688 544l-272-274.336 22.624-23.808 260.688 260.112 260.688-260.976 22.624 24.816-272 274.192zM0-128h1024v1024h-1024v-1024zM32 864h960v-960h-960v960z" />
<glyph unicode="&#xe976;" glyph-name="md-arrow-dropdown-circle" d="M512 800c-229.75 0-416-186.25-416-416s186.25-416 416-416 416 186.25 416 416-186.25 416-416 416zM512 256l-192 192h384l-192-192z" />
<glyph unicode="&#xe977;" glyph-name="md-arrow-dropdown" d="M256 512l256-256 256 256z" />
<glyph unicode="&#xe978;" glyph-name="arrows_squares" d="M464 896h-464v-464h464v464zM432 464h-400v400h400v-400zM560 432h464v464h-464v-464zM592 864h400v-400h-400v400zM464 336h-464v-464h464v464zM432-96h-400v400h400v-400zM560-128h464v464h-464v-464zM592 304h400v-400h-400v400z" />
<glyph unicode="&#xe979;" glyph-name="arrows_stretch_diagonal1" d="M832 896v-32h137.376l-372.688-372.688 22.624-22.624 372.688 372.688v-137.376h32v176l-16 16zM404.688 299.312l-372.688-372.688v137.376h-32v-176l16-16h176v32h-137.376l372.688 372.688zM628.688 244.678l-255.993 255.993 22.627 22.627 255.993-255.993-22.627-22.627z" />
<glyph unicode="&#xe97a;" glyph-name="arrows_stretch_diagonal2" d="M992-73.376l-372.688 372.688-22.624-22.624 372.688-372.688h-137.376v-32h176l16 16v176h-32zM404.688 468.688l22.624 22.624-372.688 372.688h137.376v32h-176l-16-16v-176h32v137.376zM372.678 267.312l255.993 255.993 22.627-22.627-255.993-255.993-22.627 22.627z" />
<glyph unicode="&#xe97b;" glyph-name="md-arrow-dropleft-circle" d="M928 384c0 229.75-186.25 416-416 416s-416-186.25-416-416 186.25-416 416-416 416 186.25 416 416zM384 384l192 192v-384l-192 192z" />
<glyph unicode="&#xe97c;" glyph-name="md-arrow-dropleft" d="M640 640l-256-256 256-256z" />
<glyph unicode="&#xe97d;" glyph-name="arrows_stretch_horizontal1" d="M868.688 500.688l100.688-100.688h-361.376v-32h361.376l-100.688-100.688 24.976-22.624 130.336 128v22.624l-130.336 128zM155.312 500.688l-24.976 22.624-130.336-128v-22.624l130.336-128 23.808 22.624-99.52 100.688h361.376v32h-361.376zM496 560h32v-352h-32v352z" />
<glyph unicode="&#xe97e;" glyph-name="md-arrow-dropright-circle" d="M512-32c229.75 0 416 186.25 416 416s-186.25 416-416 416-416-186.25-416-416 186.25-416 416-416zM448 192v384l192-192-192-192z" />
<glyph unicode="&#xe97f;" glyph-name="arrows_stretch_vertical1" d="M500.688 896l-128-130.336 22.624-23.808 100.688 99.52v-361.376h32v361.376l100.688-100.688 22.624 24.976-128 130.336zM528-73.376v361.376h-32v-361.376l-100.688 100.688-22.624-24.976 128-130.336h22.624l128 130.336-22.624 23.808zM336 400h352v-32h-352v32z" />
<glyph unicode="&#xe980;" glyph-name="md-arrow-dropright" d="M384 640l256-256-256-256z" />
<glyph unicode="&#xe981;" glyph-name="arrows_switch_horizontal" d="M878.32 68.688l145.68 144v22.624l-145.68 144-23.456-22.624 115.84-116.688h-826.704v-32h826.704l-115.84-116.688zM147.008 699.312l-147.008-144v-22.624l147.008-144 24.128 22.624-115.184 116.688h824.048v32h-824.048l115.184 116.688z" />
<glyph unicode="&#xe982;" glyph-name="arrows_switch_vertical" d="M688 15.968l1.264 825.472 116.752-116.752 22.624 24.976-144 146.336h-22.624l-144-146.336 22.624-23.808 116.624 116.048-1.264-825.568zM198.016 18.336l144-146.336h22.624l144 146.336-22.624 23.808-116.752-116.176-1.264 825.76-32 0.096 1.264-825.216-116.624 115.504z" />
<glyph unicode="&#xe983;" glyph-name="arrows_up_double-33" d="M500.672 656l-272-273.824 22.64-23.536 260.688 260.224 260.672-260.912 22.64 24.336-272 273.712zM500.672 416l-272-273.824 22.64-23.536 260.688 260.224 260.672-260.912 22.64 24.336-272 273.712z" />
<glyph unicode="&#xe984;" glyph-name="arrows_up" d="M795.312 269.664l-272 274.336h-22.624l-272-274.336 22.624-23.808 260.688 260.112 260.688-259.808z" />
<glyph unicode="&#xe985;" glyph-name="weather_aquarius" d="M647.92 474.832l-63.76 191.296-256-192-64 192-273.76-205.328 19.2-25.6 238.24 178.672 64-192 256 192 64.24-192.704 244.288 195.44 118.32-177.488 26.624 17.76-137.68 206.512zM647.92 154.832l-63.76 191.296-256-192-64 192-273.76-205.328 19.2-25.6 238.24 178.672 64-192 256 192 64.24-192.704 244.288 195.44 118.32-177.488 26.624 17.76-137.68 206.512z" />
<glyph unicode="&#xe986;" glyph-name="md-arrow-dropup-circle" d="M928 384c0 229.75-186.25 416-416 416s-416-186.25-416-416 186.25-416 416-416 416 186.25 416 416zM704 320h-384l192 192 192-192z" />
<glyph unicode="&#xe987;" glyph-name="md-arrow-dropup" d="M256 256l256 256 256-256z" />
<glyph unicode="&#xe988;" glyph-name="md-arrow-forward" d="M170 341.25h519.408l-239.404-239.404 61.996-59.846 342 342-342 342-59.844-59.848 237.252-239.402h-519.408v-85.5z" />
<glyph unicode="&#xe989;" glyph-name="weather_cloud_drop" d="M895.664 543.072c-7.984 181.152-159.568 320.928-351.664 320.928-169.584 0-314.080-106.88-348.976-256h-19.024c-95.392 0-176-87.92-176-192 0-100.336 75.664-176 176-176h112v32h-112c-82.096 0-144 61.904-144 144 0 86.72 65.952 160 144 160h45.28l2.448 13.040c26.464 140.784 161.152 242.96 320.272 242.96 179.44 0 320-133.536 320-304v-16h16c66 0 112-67.456 112-128 0-63.856-48.144-112-112-112h-160v-32h160c82.096 0 144 61.904 144 144 0 72.48-50.912 149.776-128.336 159.072zM656 224c0 116.272-126.128 275.28-131.504 282l-11.776 14.72-12.608-14.016c-6.048-6.72-148.112-165.904-148.112-282.704 0-83.44 67.296-144 160-144 87.472 0 144 56.528 144 144zM512 112c-61.648 0-128 35.040-128 112 0 85.584 92.832 205.136 127.264 246.528 31.040-42.048 112.736-160.896 112.736-246.528 0-70.128-41.872-112-112-112z" />
<glyph unicode="&#xe98a;" glyph-name="weather_cloud_lightning" d="M579.12 537.488l-224-304 12.88-25.488h77.344l-29.168-189.568 28.688-11.92 224 304-12.864 25.488h-77.344l29.168 189.568-28.704 11.92zM624.336 304l-166.64-226.144 22.112 143.712-15.808 18.432h-64.336l166.64 226.144-22.112-143.712 15.808-18.432h64.336zM895.664 543.072c-7.984 181.152-159.568 320.928-351.664 320.928-169.584 0-314.080-106.88-348.976-256h-19.024c-95.392 0-176-87.92-176-192 0-100.336 75.664-176 176-176h112v32h-112c-82.096 0-144 61.904-144 144 0 86.72 65.952 160 144 160h45.28l2.448 13.040c26.464 140.784 161.152 242.96 320.272 242.96 179.44 0 320-133.536 320-304v-16h16c66 0 112-67.456 112-128 0-63.856-48.144-112-112-112h-144v-32h144c82.096 0 144 61.904 144 144 0 72.48-50.912 149.776-128.336 159.072z" />
<glyph unicode="&#xe98b;" glyph-name="weather_cloud_snowflake" d="M176 240h112v32h-112c-82.096 0-144 61.904-144 144 0 86.72 65.952 160 144 160h45.28l2.448 13.040c26.464 140.784 161.152 242.96 320.272 242.96 179.44 0 320-133.536 320-304v-16h16c66 0 112-67.456 112-128 0-63.856-48.144-112-112-112h-144v-32h144c82.096 0 144 61.904 144 144 0 72.48-50.912 149.776-128.336 159.072-7.984 181.152-159.568 320.928-351.664 320.928-169.584 0-314.080-106.88-348.976-256h-19.024c-95.392 0-176-87.92-176-192 0-100.336 75.664-176 176-176zM349.312 199.12l27.248 40.88h103.44v32h-103.44l-27.248 40.88-26.624-17.76 26.080-39.12-26.080-39.12zM674.688 312.88l-27.248-40.88h-103.44v-32h103.44l27.248-40.88 26.624 17.76-26.080 39.12 26.080 39.12zM512 92.768l39.12-26.080 17.76 26.624-40.88 27.248v103.44h-32v-103.44l-40.88-27.248 17.76-26.624zM512 419.232l-39.12 26.080-17.76-26.624 40.88-27.248v-103.44h32v103.44l40.88 27.248-17.76 26.624zM405.808 417.536l-9.216-46.112-46.128-9.232 6.288-31.376 48.176 9.648 63.76-63.776 22.624 22.624-63.76 63.776 9.632 48.16zM618.192 94.464l9.232 46.112 46.112 9.232-6.288 31.376-48.176-9.632-63.76 63.76-22.624-22.624 63.76-63.76-9.632-48.176zM468.688 235.312l-63.776-63.76-48.16 9.632-6.288-31.376 46.112-9.216 9.232-46.128 31.376 6.288-9.648 48.176 63.776 63.76zM555.312 276.688l63.76 63.76 48.176-9.632 6.288 31.376-46.112 9.232-9.232 46.112-31.376-6.288 9.632-48.176-63.76-63.76z" />
<glyph unicode="&#xe98c;" glyph-name="weather_cloud" d="M176 80h704c82.096 0 144 61.904 144 144 0 72.48-50.912 149.776-128.336 159.072-7.984 181.152-159.568 320.928-351.664 320.928-169.584 0-314.080-106.88-348.976-256h-19.024c-95.392 0-176-87.92-176-192 0-100.336 75.664-176 176-176zM176 416h45.28l2.448 13.040c26.464 140.784 161.152 242.96 320.272 242.96 179.44 0 320-133.536 320-304v-16h16c66 0 112-67.456 112-128 0-63.856-48.144-112-112-112h-704c-82.096 0-144 61.904-144 144 0 86.72 65.952 160 144 160z" />
<glyph unicode="&#xe98d;" glyph-name="weather_downpour_fullmoon" d="M911.616 446.832c-8.592 160.768-155.84 289.168-335.616 289.168-65.552 0-127.008-18.496-178.496-50.512-42.352 52.016-105.44 82.512-173.504 82.512-123.52 0-224-100.48-224-224 0-42.912 12.176-84.608 35.216-120.608 13.6-21.232 31.008-40.144 50.912-55.744-3.888-15.184-6.128-31.12-6.128-47.648 0-92.704 67.296-160 160-160h656c75.36 0 128 52.64 128 128 0 71.888-44.528 148.512-112.384 158.832zM62.176 440.64c-19.744 30.832-30.176 66.576-30.176 103.36 0 105.872 86.128 192 192 192 57.456 0 110.864-25.296 147.152-68.656-55.312-42.448-95.824-102-112.128-171.344h-19.024c-62.080 0-115.872-39.168-142.4-96.144-13.584 11.936-25.728 25.6-35.424 40.784zM896 192h-656c-75.36 0-128 52.64-128 128 0 79.392 57.424 144 128 144h45.264l2.448 13.040c24.736 131.52 145.968 226.96 288.288 226.96 167.632 0 304-122.016 304-272v-16h16c56.576 0 96-67.456 96-128 0-58.32-37.68-96-96-96zM178.068-88.029l127.994 223.996 27.782-15.875-127.994-223.996-27.782 15.875zM338.061-88.037l127.994 223.996 27.782-15.875-127.994-223.996-27.782 15.875zM498.055-88.044l127.994 223.996 27.782-15.875-127.994-223.996-27.782 15.875zM658.049-88.050l127.994 223.996 27.782-15.875-127.994-223.996-27.782 15.875z" />
<glyph unicode="&#xe98e;" glyph-name="weather_downpour_halfmoon" d="M35.216 423.392c13.6-21.232 31.008-40.144 50.912-55.744-3.888-15.184-6.128-31.12-6.128-47.648 0-92.704 67.296-160 160-160h656c75.36 0 128 52.64 128 128 0 71.888-44.528 148.512-112.384 158.832-8.592 160.768-155.84 289.168-335.616 289.168-65.552 0-127.008-18.496-178.496-50.512-42.352 52.016-105.44 82.512-173.504 82.512-13.488 0-27.488-1.344-41.584-4l-23.264-4.384 12.736-19.952c13.152-20.624 20.112-44.368 20.112-68.656 0-70.576-57.424-128-128-128-14.24 0-28.496 2.464-42.384 7.344l-22.272 7.824 0.992-23.584c1.648-39.68 13.712-78.128 34.88-111.2zM880 432v-16h16c56.576 0 96-67.456 96-128 0-58.32-37.68-96-96-96h-656c-75.36 0-128 52.64-128 128 0 79.392 57.424 144 128 144h45.264l2.448 13.040c24.736 131.52 145.968 226.96 288.288 226.96 167.632 0 304-122.016 304-272zM64 511.008c88.224 0 160 71.776 160 160 0 22.304-4.672 44.208-13.648 64.48 4.624 0.336 9.168 0.512 13.648 0.512 57.456 0 110.864-25.296 147.152-68.656-55.312-42.448-95.824-102-112.128-171.344h-19.024c-62.080 0-115.872-39.168-142.4-96.144-13.6 11.952-25.712 25.616-35.44 40.784-14.16 22.128-23.568 47.072-27.68 73.168 9.792-1.872 19.648-2.8 29.52-2.8zM333.932 120.029l-127.994-223.996-27.782 15.875 127.994 223.996 27.782-15.875zM493.939 120.037l-127.994-223.996-27.782 15.875 127.994 223.996 27.782-15.875zM653.945 120.044l-127.994-223.996-27.782 15.875 127.994 223.996 27.782-15.875zM813.951 120.050l-127.994-223.996-27.782 15.875 127.994 223.996 27.782-15.875z" />
<glyph unicode="&#xe98f;" glyph-name="weather_downpour_sun" d="M911.616 446.832c-8.592 160.768-155.84 289.168-335.616 289.168-31.344 0-61.664-4.4-90.512-12.304-38.832 28.912-84.816 44.304-133.488 44.304-123.52 0-224-100.48-224-224 0-34.624 7.792-57.84 19.952-80.288-41.024-31.904-67.952-84.368-67.952-143.712 0-92.704 67.296-160 160-160h656c75.36 0 128 52.64 128 128 0 71.888-44.528 148.512-112.384 158.832zM160 544c0 105.872 86.128 192 192 192 33.904 0 66.288-8.752 95.088-25.28-93.44-38.144-164.976-116.576-188.064-214.72h-19.024c-23.072 0-44.976-5.504-64.8-15.216-10.528 20.016-15.2 37.328-15.2 63.216zM896 192h-656c-75.36 0-128 52.64-128 128 0 79.392 57.424 144 128 144h45.264l2.448 13.040c24.736 131.52 145.968 226.96 288.288 226.96 167.632 0 304-122.016 304-272v-16h16c56.576 0 96-67.456 96-128 0-58.32-37.68-96-96-96zM0 560h96v-32h-96v32zM336 896h32v-96h-32v96zM75.31 843.319l95.996-95.996-22.627-22.627-95.996 95.996 22.627 22.627zM306.124 135.976l27.782-15.875-127.994-223.996-27.782 15.875 127.994 223.996zM338.061-88.037l127.994 223.996 27.782-15.875-127.994-223.996-27.782 15.875zM498.055-88.044l127.994 223.996 27.782-15.875-127.994-223.996-27.782 15.875zM658.049-88.050l127.994 223.996 27.782-15.875-127.994-223.996-27.782 15.875z" />
<glyph unicode="&#xe990;" glyph-name="weather_drop" d="M512-128c194.096 0 352 163.184 352 363.76 0 251.536-325.376 638.24-339.232 654.576l-12.16 14.352-12.208-14.32c-13.952-16.32-341.52-403.056-340.4-654.672 0.864-200.544 158.768-363.696 352-363.696zM512.528 854.88c59.824-73.664 319.472-405.76 319.472-619.12 0-182.928-143.552-331.76-320-331.76-175.664 0-319.216 148.864-320 331.84-0.96 213.248 260.384 545.456 320.528 619.040z" />
<glyph unicode="&#xe991;" glyph-name="weather_first_quarter" d="M512-128c282.32 0 512 229.68 512 512s-229.68 512-512 512-512-229.68-512-512 229.68-512 512-512zM32 384c0 10.768 0.48 21.408 1.184 32h462.816v-64h-462.816c-0.704 10.592-1.184 21.232-1.184 32zM496-95.6c-54.816 1.808-107.312 12.832-156.016 31.6h156.016v-31.6zM496 832h-156.016c48.704 18.768 101.2 29.776 156.016 31.6v-31.6zM496 800v-64h-309.888c26.384 24.448 55.536 45.92 86.88 64h223.008zM496 704v-64h-389.728c14.352 22.672 30.512 44.096 48.352 64h341.376zM496 608v-64h-436.48c7.84 22.128 17.264 43.504 28.128 64h408.352zM496 512v-64h-459.616c2.928 21.824 7.312 43.184 13.072 64h446.544zM496 320v-64h-446.528c-5.76 20.816-10.144 42.176-13.072 64h459.6zM496 224v-64h-408.336c-10.864 20.496-20.288 41.872-28.128 64h436.464zM496 128v-64h-341.376c-17.84 19.904-34 41.328-48.352 64h389.728zM496 32v-64h-223.008c-31.344 18.080-60.496 39.552-86.88 64h309.888zM992 384c0-259.312-206.72-471.104-464-479.6v959.2c257.28-8.496 464-220.288 464-479.6z" />
<glyph unicode="&#xe992;" glyph-name="weather_fog_fullmoon" d="M86.128 367.648c-3.888-15.184-6.128-31.12-6.128-47.648 0-92.704 67.296-160 160-160v32c-75.36 0-128 52.64-128 128 0 79.392 57.424 144 128 144h45.264l2.448 13.040c24.736 131.52 145.968 226.96 288.288 226.96 167.632 0 304-122.016 304-272v-16h16c56.576 0 96-67.456 96-128 0-58.32-37.68-96-96-96v-32c75.36 0 128 52.64 128 128 0 71.888-44.528 148.512-112.384 158.832-8.592 160.768-155.84 289.168-335.616 289.168-65.552 0-127.008-18.496-178.496-50.512-42.352 52.016-105.44 82.512-173.504 82.512-123.52 0-224-100.48-224-224 0-42.912 12.176-84.608 35.216-120.608 13.6-21.232 31.024-40.144 50.912-55.744zM224 736c57.456 0 110.864-25.296 147.152-68.656-55.312-42.448-95.824-102-112.128-171.344h-19.024c-62.080 0-115.872-39.168-142.4-96.144-13.584 11.952-25.696 25.616-35.424 40.784-19.744 30.832-30.176 66.576-30.176 103.36 0 105.872 86.128 192 192 192zM272 192h592v-32h-592v32zM272 96h592v-32h-592v32zM272 0h592v-32h-592v32z" />
<glyph unicode="&#xe993;" glyph-name="weather_fog_halfmoon" d="M911.616 446.832c-8.592 160.768-155.84 289.168-335.616 289.168-65.552 0-127.008-18.496-178.496-50.512-42.352 52.016-105.44 82.512-173.504 82.512-13.488 0-27.488-1.344-41.584-4l-23.264-4.384 12.736-19.952c13.152-20.624 20.112-44.368 20.112-68.656 0-70.576-57.424-128-128-128-14.24 0-28.496 2.464-42.384 7.344l-22.272 7.824 0.992-23.584c1.664-39.664 13.712-78.128 34.896-111.2 13.6-21.232 31.008-40.144 50.912-55.744-3.904-15.184-6.144-31.12-6.144-47.648 0-92.704 67.296-160 160-160v32c-75.36 0-128 52.64-128 128 0 79.392 57.424 144 128 144h45.264l2.448 13.040c24.736 131.52 145.968 226.96 288.288 226.96 167.632 0 304-122.016 304-272v-16h16c56.576 0 96-67.456 96-128 0-58.32-37.68-96-96-96v-32c75.36 0 128 52.64 128 128 0 71.888-44.528 148.512-112.384 158.832zM259.024 496h-19.024c-62.080 0-115.888-39.168-142.4-96.144-13.584 11.952-25.712 25.616-35.44 40.784-14.16 22.128-23.568 47.072-27.68 73.168 9.792-1.872 19.648-2.8 29.52-2.8 88.224 0 160 71.776 160 160 0 22.304-4.672 44.208-13.648 64.48 4.624 0.336 9.168 0.512 13.648 0.512 57.456 0 110.864-25.296 147.152-68.656-55.312-42.448-95.824-102-112.128-171.344zM272 192h592v-32h-592v32zM272 96h592v-32h-592v32zM272 0h592v-32h-592v32z" />
<glyph unicode="&#xe994;" glyph-name="weather_fog_sun" d="M911.6 446.832c-8.576 160.768-155.824 289.168-335.6 289.168-31.344 0-61.664-4.4-90.528-12.304-38.8 28.912-84.8 44.304-133.472 44.304-123.52 0-224-100.48-224-224 0-34.624 7.792-57.84 19.952-80.288-41.024-31.888-67.952-84.368-67.952-143.712 0-92.704 67.296-160 160-160v32c-75.36 0-128 52.64-128 128 0 79.392 57.424 144 128 144h45.28l2.448 13.040c24.72 131.52 145.952 226.96 288.272 226.96 167.632 0 304-122.016 304-272v-16h16c56.576 0 96-67.456 96-128 0-58.32-37.68-96-96-96v-32c75.36 0 128 52.64 128 128 0 71.888-44.528 148.512-112.4 158.832zM259.024 496h-19.024c-23.072 0-44.976-5.504-64.8-15.216-10.528 20.016-15.2 37.328-15.2 63.216 0 105.872 86.128 192 192 192 33.92 0 66.288-8.752 95.088-25.28-93.424-38.144-164.992-116.576-188.064-214.72zM0 560h96v-32h-96v32zM336 896h32v-96h-32v96zM75.31 843.319l95.996-95.996-22.627-22.627-95.996 95.996 22.627 22.627zM272 192h592v-32h-592v32zM272 96h592v-32h-592v32zM272 0h592v-32h-592v32z" />
<glyph unicode="&#xe995;" glyph-name="weather_fog" d="M895.664 543.072c-7.984 181.152-159.568 320.928-351.664 320.928-169.584 0-314.080-106.88-348.976-256h-19.024c-95.392 0-176-87.92-176-192 0-100.336 75.664-176 176-176v32c-82.096 0-144 61.904-144 144 0 86.72 65.952 160 144 160h45.28l2.448 13.040c26.464 140.784 161.152 242.96 320.272 242.96 179.44 0 320-133.536 320-304v-16h16c66 0 112-67.456 112-128 0-63.856-48.144-112-112-112v-32c82.096 0 144 61.904 144 144 0 72.48-50.912 149.776-128.336 159.072zM208 272h640v-32h-640v32zM208 144h640v-32h-640v32zM208 16h640v-32h-640v32z" />
<glyph unicode="&#xe996;" glyph-name="weather_fullmoon" d="M512 896c-282.32 0-512-229.68-512-512s229.68-512 512-512 512 229.68 512 512-229.68 512-512 512zM512-96c-264.672 0-480 215.328-480 480s215.328 480 480 480 480-215.328 480-480-215.328-480-480-480z" />
<glyph unicode="&#xe997;" glyph-name="md-arrow-round-back" d="M802.8 448h-428l166 158.8c23.8 25 23.8 65.4 0 90.4s-62.4 25-86.4 0l-276.4-268c-12-11.6-18-27.4-18-44.8v-0.8c0-17.4 6-33.2 18-44.8l276.2-268c24-25 62.6-25 86.4 0s23.8 65.4 0 90.4l-166 158.8h428c33.8 0 61.2 28.6 61.2 64 0.2 36-27.2 64-61 64z" />
<glyph unicode="&#xe998;" glyph-name="weather_hail_fullmoon" d="M911.616 446.832c-8.592 160.768-155.84 289.168-335.616 289.168-65.552 0-127.008-18.496-178.496-50.512-42.352 52.016-105.44 82.512-173.504 82.512-123.52 0-224-100.48-224-224 0-42.912 12.176-84.608 35.216-120.608 13.6-21.232 31.008-40.144 50.912-55.744-3.888-15.184-6.128-31.12-6.128-47.648 0-92.704 67.296-160 160-160h656c75.36 0 128 52.64 128 128 0 71.888-44.528 148.512-112.384 158.832zM62.176 440.64c-19.744 30.832-30.176 66.576-30.176 103.36 0 105.872 86.128 192 192 192 57.456 0 110.864-25.296 147.152-68.656-55.312-42.448-95.824-102-112.128-171.344h-19.024c-62.080 0-115.872-39.168-142.4-96.144-13.584 11.936-25.728 25.6-35.424 40.784zM896 192h-656c-75.36 0-128 52.64-128 128 0 79.392 57.424 144 128 144h45.264l2.448 13.040c24.736 131.52 145.968 226.96 288.288 226.96 167.632 0 304-122.016 304-272v-16h16c56.576 0 96-67.456 96-128 0-58.32-37.68-96-96-96zM305.403 134.511l29.256-13.002-63.995-144-29.256 13.002 63.995 144zM465.4 134.518l29.256-13.002-63.995-144-29.256 13.002 63.995 144zM625.398 134.524l29.256-13.002-63.995-144-29.256 13.002 63.995 144zM785.397 134.53l29.256-13.002-63.995-144-29.256 13.002 63.995 144zM238.304-103.185l-28.621 14.31 15.999 31.998 28.621-14.31-15.999-31.998zM398.308-103.186l-28.621 14.31 15.999 31.998 28.621-14.31-15.999-31.998zM558.312-103.188l-28.621 14.31 15.999 31.998 28.621-14.31-15.999-31.998zM718.317-103.191l-28.621 14.31 15.999 31.998 28.621-14.31-15.999-31.998z" />
<glyph unicode="&#xe999;" glyph-name="weather_hail_halfmoon" d="M911.616 446.832c-8.592 160.768-155.84 289.168-335.616 289.168-65.552 0-127.008-18.496-178.496-50.512-42.352 52.016-105.44 82.512-173.504 82.512-13.488 0-27.488-1.344-41.584-4l-23.264-4.384 12.736-19.952c13.152-20.624 20.112-44.368 20.112-68.656 0-70.576-57.424-128-128-128-14.24 0-28.496 2.464-42.384 7.344l-22.272 7.824 0.992-23.584c1.664-39.664 13.712-78.128 34.896-111.2 13.6-21.232 31.008-40.144 50.912-55.744-3.904-15.184-6.144-31.12-6.144-47.648 0-92.704 67.296-160 160-160h656c75.36 0 128 52.64 128 128 0 71.888-44.528 148.512-112.384 158.832zM62.16 440.64c-14.16 22.128-23.568 47.072-27.68 73.168 9.792-1.872 19.648-2.8 29.52-2.8 88.224 0 160 71.776 160 160 0 22.304-4.672 44.208-13.648 64.48 4.624 0.336 9.168 0.512 13.648 0.512 57.456 0 110.864-25.296 147.152-68.656-55.312-42.448-95.824-102-112.128-171.344h-19.024c-62.080 0-115.872-39.168-142.4-96.144-13.6 11.936-25.728 25.6-35.44 40.784zM896 192h-656c-75.36 0-128 52.64-128 128 0 79.392 57.424 144 128 144h45.264l2.448 13.040c24.736 131.52 145.968 226.96 288.288 226.96 167.632 0 304-122.016 304-272v-16h16c56.576 0 96-67.456 96-128 0-58.32-37.68-96-96-96zM305.403 134.511l29.256-13.002-63.995-144-29.256 13.002 63.995 144zM465.4 134.518l29.256-13.002-63.995-144-29.256 13.002 63.995 144zM625.398 134.524l29.256-13.002-63.995-144-29.256 13.002 63.995 144zM785.397 134.53l29.256-13.002-63.995-144-29.256 13.002 63.995 144zM238.304-103.185l-28.621 14.31 15.999 31.998 28.621-14.31-15.999-31.998zM398.308-103.186l-28.621 14.31 15.999 31.998 28.621-14.31-15.999-31.998zM558.312-103.188l-28.621 14.31 15.999 31.998 28.621-14.31-15.999-31.998zM718.317-103.191l-28.621 14.31 15.999 31.998 28.621-14.31-15.999-31.998z" />
<glyph unicode="&#xe99a;" glyph-name="weather_hail_sun" d="M911.616 446.832c-8.592 160.768-155.84 289.168-335.616 289.168-31.344 0-61.664-4.4-90.512-12.304-38.832 28.912-84.816 44.304-133.488 44.304-123.52 0-224-100.48-224-224 0-34.624 7.792-57.84 19.952-80.288-41.024-31.904-67.952-84.368-67.952-143.712 0-92.704 67.296-160 160-160h656c75.36 0 128 52.64 128 128 0 71.888-44.528 148.512-112.384 158.832zM160 544c0 105.872 86.128 192 192 192 33.904 0 66.288-8.752 95.088-25.28-93.44-38.144-164.976-116.576-188.064-214.72h-19.024c-23.072 0-44.976-5.504-64.8-15.216-10.528 20.016-15.2 37.328-15.2 63.216zM896 192h-656c-75.36 0-128 52.64-128 128 0 79.392 57.424 144 128 144h45.264l2.448 13.040c24.736 131.52 145.968 226.96 288.288 226.96 167.632 0 304-122.016 304-272v-16h16c56.576 0 96-67.456 96-128 0-58.32-37.68-96-96-96zM0 560h96v-32h-96v32zM336 896h32v-96h-32v96zM75.31 843.319l95.996-95.996-22.627-22.627-95.996 95.996 22.627 22.627zM305.403 134.511l29.256-13.002-63.995-144-29.256 13.002 63.995 144zM465.4 134.518l29.256-13.002-63.995-144-29.256 13.002 63.995 144zM625.398 134.524l29.256-13.002-63.995-144-29.256 13.002 63.995 144zM785.397 134.53l29.256-13.002-63.995-144-29.256 13.002 63.995 144zM238.304-103.185l-28.621 14.31 15.999 31.998 28.621-14.31-15.999-31.998zM398.308-103.186l-28.621 14.31 15.999 31.998 28.621-14.31-15.999-31.998zM558.312-103.188l-28.621 14.31 15.999 31.998 28.621-14.31-15.999-31.998zM718.317-103.191l-28.621 14.31 15.999 31.998 28.621-14.31-15.999-31.998z" />
<glyph unicode="&#xe99b;" glyph-name="weather_hail" d="M895.664 543.072c-7.984 181.152-159.568 320.928-351.664 320.928-169.584 0-314.080-106.88-348.976-256h-19.024c-95.392 0-176-87.92-176-192 0-100.336 75.664-176 176-176h704c82.096 0 144 61.904 144 144 0 72.48-50.912 149.776-128.336 159.072zM880 272h-704c-82.096 0-144 61.904-144 144 0 86.72 65.952 160 144 160h45.28l2.448 13.040c26.464 140.784 161.152 242.96 320.272 242.96 179.44 0 320-133.536 320-304v-16h16c66 0 112-67.456 112-128 0-63.856-48.144-112-112-112zM289.456 6.625l79.999 176.006 29.118-13.235-79.999-176.006-29.118 13.235zM129.458 6.619l79.999 176.006 29.118-13.235-79.999-176.006-29.118 13.235zM449.456 6.63l79.999 176.006 29.118-13.235-79.999-176.006-29.118 13.235zM609.456 6.635l79.999 176.006 29.118-13.235-79.999-176.006-29.118 13.235zM849.407 182.637l29.118-13.232-79.98-176.006-29.118 13.232 79.98 176.006zM241.66-72.837l15.999 31.998 28.621-14.31-15.999-31.998-28.621 14.31zM81.663-72.834l15.999 31.998 28.621-14.31-15.999-31.998-28.621 14.31zM401.658-72.842l15.999 31.998 28.621-14.31-15.999-31.998-28.621 14.31zM561.656-72.847l15.999 31.998 28.621-14.31-15.999-31.998-28.621 14.31zM721.653-72.852l15.999 31.998 28.621-14.31-15.999-31.998-28.621 14.31z" />
<glyph unicode="&#xe99c;" glyph-name="weather_last_quarter" d="M512 896c-282.32 0-512-229.68-512-512s229.68-512 512-512 512 229.68 512 512-229.68 512-512 512zM992 384c0-10.768-0.48-21.408-1.184-32h-462.816v64h462.816c0.704-10.592 1.184-21.232 1.184-32zM528 863.6c54.816-1.824 107.312-12.832 156.032-31.6h-156.032v31.6zM528-64h156.032c-48.72-18.768-101.216-29.776-156.032-31.6v31.6zM528-32v64h309.872c-26.368-24.448-55.52-45.92-86.88-64h-222.992zM528 64v64h389.728c-14.352-22.672-30.512-44.096-48.336-64h-341.392zM528 160v64h436.48c-7.856-22.128-17.264-43.504-28.144-64h-408.336zM528 256v64h459.616c-2.928-21.824-7.312-43.184-13.072-64h-446.544zM528 448v64h446.528c5.76-20.816 10.16-42.176 13.072-64h-459.6zM528 544v64h408.336c10.88-20.496 20.288-41.872 28.144-64h-436.48zM528 640v64h341.392c17.824-19.904 33.984-41.328 48.336-64h-389.728zM528 736v64h223.008c31.36-18.080 60.496-39.552 86.88-64h-309.888zM32 384c0 259.312 206.72 471.104 464 479.6v-959.184c-257.28 8.48-464 220.272-464 479.584z" />
<glyph unicode="&#xe99d;" glyph-name="md-arrow-round-down" d="M198.8 326.2l268-276.2c11.6-12 27.4-18 44.8-18h0.8c17.4 0 33.2 6 44.8 18l268 276.2c25 24 25 62.6 0 86.4s-65.4 23.8-90.4 0l-158.8-166v428c0 33.8-28.6 61.2-64 61.2-36 0-64-27.4-64-61.2v-428l-158.8 166c-25 23.8-65.4 23.8-90.4 0s-25-62.4 0-86.4z" />
<glyph unicode="&#xe99e;" glyph-name="md-arrow-round-forward" d="M569.8 70.8l276.2 268c12 11.6 18 27.4 18 44.8v0.8c0 17.4-6 33.2-18 44.8l-276.2 268c-24 25-62.6 25-86.4 0s-23.8-65.4 0-90.4l166-158.8h-428c-34 0-61.4-28.6-61.4-64 0-36 27.4-64 61.2-64h428l-166-158.8c-23.8-25-23.8-65.4 0-90.4 24-25 62.6-25 86.6 0z" />
<glyph unicode="&#xe99f;" glyph-name="weather_lightning" d="M475.12 288l-106.576-395.84 28.416-13.52 416 576-12.96 25.36h-205.344l61.168 397.568-29.296 11.040-368-576 13.472-24.608h203.12zM612.656 807.488l-52.464-341.056 15.808-18.432h192.704l-346.56-479.856 89.312 331.696-15.456 20.16h-194.784l311.44 487.488z" />
<glyph unicode="&#xe9a0;" glyph-name="weather_mistyrain_fullmoon" d="M911.616 446.832c-8.592 160.768-155.84 289.168-335.616 289.168-65.552 0-127.008-18.496-178.496-50.512-42.352 52.016-105.44 82.512-173.504 82.512-123.52 0-224-100.48-224-224 0-42.912 12.176-84.608 35.216-120.608 13.6-21.232 31.008-40.144 50.912-55.744-3.888-15.184-6.128-31.12-6.128-47.648 0-92.704 67.296-160 160-160h656c75.36 0 128 52.64 128 128 0 71.888-44.528 148.512-112.384 158.832zM62.176 440.64c-19.744 30.832-30.176 66.576-30.176 103.36 0 105.872 86.128 192 192 192 57.456 0 110.864-25.296 147.152-68.656-55.312-42.448-95.824-102-112.128-171.344h-19.024c-62.080 0-115.872-39.168-142.4-96.144-13.584 11.936-25.728 25.6-35.424 40.784zM896 192h-656c-75.36 0-128 52.64-128 128 0 79.392 57.424 144 128 144h45.264l2.448 13.040c24.736 131.52 145.968 226.96 288.288 226.96 167.632 0 304-122.016 304-272v-16h16c56.576 0 96-67.456 96-128 0-58.32-37.68-96-96-96zM225.696-56.815l28.621-14.31-15.999-31.998-28.621 14.31 15.999 31.998zM385.692-56.814l28.621-14.31-15.999-31.998-28.621 14.31 15.999 31.998zM529.656-88.845l15.999 31.998 28.621-14.31-15.999-31.998-28.621 14.31zM689.653-88.85l15.999 31.998 28.621-14.31-15.999-31.998-28.621 14.31zM302.308 88.82l-28.621 14.31 15.999 31.998 28.621-14.31-15.999-31.998zM462.312 88.819l-28.621 14.31 15.999 31.998 28.621-14.31-15.999-31.998zM622.317 88.815l-28.621 14.31 15.999 31.998 28.621-14.31-15.999-31.998zM753.658 103.145l15.999 31.998 28.621-14.31-15.999-31.998-28.621 14.31zM145.664 7.164l15.999 31.998 28.621-14.31-15.999-31.998-28.621 14.31zM321.692 39.183l28.621-14.31-15.999-31.998-28.621 14.31 15.999 31.998zM481.688 39.185l28.621-14.31-15.999-31.998-28.621 14.31 15.999 31.998zM641.683 39.186l28.621-14.31-15.999-31.998-28.621 14.31 15.999 31.998z" />
<glyph unicode="&#xe9a1;" glyph-name="weather_mistyrain_halfmoon" d="M911.616 446.832c-8.592 160.768-155.84 289.168-335.616 289.168-65.552 0-127.008-18.496-178.496-50.512-42.352 52.016-105.44 82.512-173.504 82.512-13.488 0-27.488-1.344-41.584-4l-23.264-4.384 12.736-19.952c13.152-20.624 20.112-44.368 20.112-68.656 0-70.576-57.424-128-128-128-14.24 0-28.496 2.464-42.384 7.344l-22.272 7.824 0.992-23.584c1.664-39.664 13.712-78.128 34.896-111.2 13.6-21.232 31.008-40.144 50.912-55.744-3.904-15.184-6.144-31.12-6.144-47.648 0-92.704 67.296-160 160-160h656c75.36 0 128 52.64 128 128 0 71.888-44.528 148.512-112.384 158.832zM62.16 440.64c-14.16 22.128-23.568 47.072-27.68 73.168 9.792-1.872 19.648-2.8 29.52-2.8 88.224 0 160 71.776 160 160 0 22.304-4.672 44.208-13.648 64.48 4.624 0.336 9.168 0.512 13.648 0.512 57.456 0 110.864-25.296 147.152-68.656-55.312-42.448-95.824-102-112.128-171.344h-19.024c-62.080 0-115.872-39.168-142.4-96.144-13.6 11.936-25.728 25.6-35.44 40.784zM896 192h-656c-75.36 0-128 52.64-128 128 0 79.392 57.424 144 128 144h45.264l2.448 13.040c24.736 131.52 145.968 226.96 288.288 226.96 167.632 0 304-122.016 304-272v-16h16c56.576 0 96-67.456 96-128 0-58.32-37.68-96-96-96zM225.696-56.815l28.621-14.31-15.999-31.998-28.621 14.31 15.999 31.998zM385.692-56.814l28.621-14.31-15.999-31.998-28.621 14.31 15.999 31.998zM529.656-88.845l15.999 31.998 28.621-14.31-15.999-31.998-28.621 14.31zM689.653-88.85l15.999 31.998 28.621-14.31-15.999-31.998-28.621 14.31zM302.308 88.82l-28.621 14.31 15.999 31.998 28.621-14.31-15.999-31.998zM462.312 88.819l-28.621 14.31 15.999 31.998 28.621-14.31-15.999-31.998zM622.317 88.815l-28.621 14.31 15.999 31.998 28.621-14.31-15.999-31.998zM753.658 103.145l15.999 31.998 28.621-14.31-15.999-31.998-28.621 14.31zM161.697 39.18l28.621-14.31-15.999-31.998-28.621 14.31 15.999 31.998zM321.692 39.183l28.621-14.31-15.999-31.998-28.621 14.31 15.999 31.998zM481.688 39.185l28.621-14.31-15.999-31.998-28.621 14.31 15.999 31.998zM641.683 39.186l28.621-14.31-15.999-31.998-28.621 14.31 15.999 31.998z" />
<glyph unicode="&#xe9a2;" glyph-name="weather_mistyrain_sun" d="M911.616 446.832c-8.592 160.768-155.84 289.168-335.616 289.168-31.344 0-61.664-4.4-90.512-12.304-38.832 28.912-84.816 44.304-133.488 44.304-123.52 0-224-100.48-224-224 0-34.624 7.792-57.84 19.952-80.288-41.024-31.904-67.952-84.368-67.952-143.712 0-92.704 67.296-160 160-160h656c75.36 0 128 52.64 128 128 0 71.888-44.528 148.512-112.384 158.832zM160 544c0 105.872 86.128 192 192 192 33.904 0 66.288-8.752 95.088-25.28-93.44-38.144-164.976-116.576-188.064-214.72h-19.024c-23.072 0-44.976-5.504-64.8-15.216-10.528 20.016-15.2 37.328-15.2 63.216zM896 192h-656c-75.36 0-128 52.64-128 128 0 79.392 57.424 144 128 144h45.264l2.448 13.040c24.736 131.52 145.968 226.96 288.288 226.96 167.632 0 304-122.016 304-272v-16h16c56.576 0 96-67.456 96-128 0-58.32-37.68-96-96-96zM0 560h96v-32h-96v32zM336 896h32v-96h-32v96zM75.31 843.319l95.996-95.996-22.627-22.627-95.996 95.996 22.627 22.627zM209.66-88.837l15.999 31.998 28.621-14.31-15.999-31.998-28.621 14.31zM369.658-88.841l15.999 31.998 28.621-14.31-15.999-31.998-28.621 14.31zM529.656-88.845l15.999 31.998 28.621-14.31-15.999-31.998-28.621 14.31zM689.653-88.85l15.999 31.998 28.621-14.31-15.999-31.998-28.621 14.31zM302.308 88.82l-28.621 14.31 15.999 31.998 28.621-14.31-15.999-31.998zM462.312 88.819l-28.621 14.31 15.999 31.998 28.621-14.31-15.999-31.998zM622.317 88.815l-28.621 14.31 15.999 31.998 28.621-14.31-15.999-31.998zM753.658 103.145l15.999 31.998 28.621-14.31-15.999-31.998-28.621 14.31zM161.697 39.18l28.621-14.31-15.999-31.998-28.621 14.31 15.999 31.998zM334.308-7.183l-28.621 14.31 15.999 31.998 28.621-14.31-15.999-31.998zM481.688 39.185l28.621-14.31-15.999-31.998-28.621 14.31 15.999 31.998zM641.683 39.186l28.621-14.31-15.999-31.998-28.621 14.31 15.999 31.998z" />
<glyph unicode="&#xe9a3;" glyph-name="weather_mistyrain" d="M895.664 543.072c-7.984 181.152-159.568 320.928-351.664 320.928-169.584 0-314.080-106.88-348.976-256h-19.024c-95.392 0-176-87.92-176-192 0-100.336 75.664-176 176-176h704c82.096 0 144 61.904 144 144 0 72.48-50.912 149.776-128.336 159.072zM880 272h-704c-82.096 0-144 61.904-144 144 0 86.72 65.952 160 144 160h45.28l2.448 13.040c26.464 140.784 161.152 242.96 320.272 242.96 179.44 0 320-133.536 320-304v-16h16c66 0 112-67.456 112-128 0-63.856-48.144-112-112-112zM270.304-87.185l-28.621 14.31 15.999 31.998 28.621-14.31-15.999-31.998zM110.301-87.181l-28.621 14.31 15.999 31.998 28.621-14.31-15.999-31.998zM430.309-87.186l-28.621 14.31 15.999 31.998 28.621-14.31-15.999-31.998zM590.314-87.188l-28.621 14.31 15.999 31.998 28.621-14.31-15.999-31.998zM750.319-87.191l-28.621 14.31 15.999 31.998 28.621-14.31-15.999-31.998zM353.661 39.158l15.999 31.998 28.621-14.31-15.999-31.998-28.621 14.31zM209.696 71.18l28.621-14.31-15.999-31.998-28.621 14.31 15.999 31.998zM513.66 39.153l15.999 31.998 28.621-14.31-15.999-31.998-28.621 14.31zM673.658 39.148l15.999 31.998 28.621-14.31-15.999-31.998-28.621 14.31zM833.655 39.145l15.999 31.998 28.621-14.31-15.999-31.998-28.621 14.31zM289.691 199.178l28.621-14.31-15.999-31.998-28.621 14.31 15.999 31.998zM129.696 199.175l28.621-14.31-15.999-31.998-28.621 14.31 15.999 31.998zM449.686 199.18l28.621-14.31-15.999-31.998-28.621 14.31 15.999 31.998zM609.683 199.181l28.621-14.31-15.999-31.998-28.621 14.31 15.999 31.998zM769.678 199.185l28.621-14.31-15.999-31.998-28.621 14.31 15.999 31.998z" />
<glyph unicode="&#xe9a4;" glyph-name="weather_moon" d="M464-128c282.32 0 512 229.68 512 512s-229.68 512-512 512c-66.72 0-144.304-12.96-197.632-33.024l-33.344-12.544 31.536-16.592c140.592-73.984 231.44-212.864 231.44-353.84 0-220.56-179.44-400-400-400l-11.040-0.032-40.176 0.944 22.992-27.216c96.048-113.776 244.176-181.696 396.224-181.696zM528 480c0 141.648-83.952 280.976-216.608 363.808 46.144 12.544 102.512 20.192 152.608 20.192 264.672 0 480-215.328 480-480s-215.328-480-480-480c-130.8 0-258.432 53.456-348.16 144.448 229.040 10.4 412.16 199.984 412.16 431.552z" />
<glyph unicode="&#xe9a5;" glyph-name="weather_moondown_full" d="M0 128h1024v32h-226.336c22.448 44.464 34.336 93.68 34.336 144 0 176.448-143.552 320-320 320s-320-143.552-320-320c0-50.32 11.888-99.536 34.336-144h-226.336v-32zM224 304c0 158.8 129.2 288 288 288s288-129.2 288-288c0-50.816-13.472-100.352-38.72-144h-498.544c-25.264 43.648-38.736 93.2-38.736 144zM411.312 59.312l-22.624-24.976 112-114.336h22.624l112 114.336-22.624 23.808-100.688-100.112z" />
<glyph unicode="&#xe9a6;" glyph-name="weather_moondown_half" d="M1024 160h-226.336c22.448 44.464 34.336 93.68 34.336 144 0 176.448-143.552 320-320 320-0.896 0-1.744-0.048-3.056-0.144l-24.224-0.4 9.872-22.112c11.552-25.888 17.408-53.264 17.408-81.344 0-110.288-89.712-200-200-200-33.184 0-66.064 8.304-95.056 24l-21.52 11.664-2.048-24.368c-0.72-8.48-1.376-17.648-1.376-27.296 0-50.32 11.888-99.536 34.336-144h-226.336v-32h1024v32zM224 304c0 0.432 0 0.88 0 1.312 27.792-11.376 57.792-17.312 88-17.312 127.92 0 232 104.080 232 232 0 24.352-3.776 48.24-11.28 71.264 149.152-10.656 267.28-135.44 267.28-287.264 0-50.816-13.472-100.352-38.736-144h-498.528c-25.264 43.632-38.736 93.184-38.736 144zM411.312 59.312l-22.624-24.976 112-114.336h22.624l112 114.336-22.624 23.808-100.688-100.112z" />
<glyph unicode="&#xe9a7;" glyph-name="weather_moonset_full" d="M1024 160h-226.336c22.448 44.464 34.336 93.68 34.336 144 0 176.448-143.552 320-320 320s-320-143.552-320-320c0-50.32 11.888-99.536 34.336-144h-226.336v-32h1024v32zM224 304c0 158.8 129.2 288 288 288s288-129.2 288-288c0-50.816-13.472-100.352-38.72-144h-498.544c-25.264 43.648-38.736 93.2-38.736 144zM388.688-50.336l22.624-23.808 100.688 100.112 100.688-100.976 22.624 24.8-112 114.208h-22.624z" />
<glyph unicode="&#xe9a8;" glyph-name="weather_moonset_half" d="M832 304c0 176.448-143.552 320-320 320-0.896 0-1.76-0.048-3.056-0.144l-24.224-0.4 9.872-22.112c11.552-25.872 17.408-53.248 17.408-81.344 0-110.288-89.712-200-200-200-33.184 0-66.048 8.304-95.072 24.016l-21.488 11.632-2.064-24.336c-0.688-8-1.376-17.488-1.376-27.312 0-50.32 11.888-99.536 34.336-144h-226.336v-32h1024v32h-226.336c22.448 44.464 34.336 93.68 34.336 144zM224 304c0 0.432 0 0.88 0 1.312 27.792-11.376 57.792-17.312 88-17.312 127.92 0 232 104.080 232 232 0 24.352-3.792 48.24-11.28 71.264 149.168-10.656 267.28-135.44 267.28-287.264 0-50.816-13.472-100.352-38.72-144h-498.544c-25.264 43.648-38.736 93.2-38.736 144zM612.688-75.312l22.624 24.976-112 114.336h-22.624l-112-114.336 22.624-23.808 100.688 100.112z" />
<glyph unicode="&#xe9a9;" glyph-name="weather_move2" d="M512-128c282.32 0 512 229.68 512 512s-229.68 512-512 512-512-229.68-512-512 229.68-512 512-512zM32 384c0 10.768 0.48 21.408 1.184 32h462.816v-64h-462.816c-0.704 10.592-1.184 21.232-1.184 32zM496-95.6c-54.816 1.808-107.312 12.832-156.016 31.6h156.016v-31.6zM496 832h-156.016c48.704 18.768 101.2 29.776 156.016 31.6v-31.6zM496 800v-64h-309.888c26.384 24.448 55.536 45.92 86.88 64h223.008zM496 704v-64h-389.728c14.352 22.672 30.512 44.096 48.352 64h341.376zM496 608v-64h-436.48c7.84 22.128 17.264 43.504 28.128 64h408.352zM496 512v-64h-459.616c2.928 21.824 7.312 43.184 13.072 64h446.544zM496 320v-64h-446.528c-5.76 20.816-10.144 42.176-13.072 64h459.6zM496 224v-64h-408.336c-10.864 20.496-20.288 41.872-28.128 64h436.464zM496 128v-64h-341.376c-17.84 19.904-34 41.328-48.352 64h389.728zM496 32v-64h-223.008c-31.344 18.080-60.496 39.552-86.88 64h309.888zM992 384c0-259.312-206.72-471.104-464-479.6v959.2c257.28-8.496 464-220.288 464-479.6z" />
<glyph unicode="&#xe9aa;" glyph-name="weather_newmoon" d="M512 896c-282.32 0-512-229.68-512-512s229.68-512 512-512 512 229.68 512 512-229.68 512-512 512zM992 384c0-10.768-0.48-21.408-1.184-32h-957.632c-0.704 10.592-1.184 21.232-1.184 32s0.48 21.408 1.184 32h957.632c0.704-10.592 1.184-21.232 1.184-32zM186.112 32h651.76c-26.384-24.448-55.536-45.92-86.88-64h-478c-31.344 18.080-60.496 39.552-86.88 64zM154.624 64c-17.84 19.904-34 41.328-48.352 64h811.472c-14.352-22.672-30.512-44.096-48.352-64h-714.768zM87.664 160c-10.864 20.496-20.288 41.872-28.128 64h904.96c-7.84-22.128-17.264-43.504-28.128-64h-848.704zM49.472 256c-5.76 20.816-10.144 42.176-13.072 64h951.216c-2.928-21.824-7.312-43.184-13.072-64h-925.072zM36.384 448c2.928 21.824 7.312 43.184 13.072 64h925.056c5.76-20.816 10.144-42.176 13.072-64h-951.2zM59.52 544c7.84 22.128 17.264 43.504 28.128 64h848.688c10.864-20.496 20.288-41.872 28.128-64h-904.944zM106.272 640c14.352 22.672 30.512 44.096 48.352 64h714.768c17.84-19.904 34-41.328 48.352-64h-811.472zM186.112 736c26.384 24.448 55.536 45.92 86.88 64h478c31.344-18.080 60.496-39.552 86.88-64h-651.76zM684.016 832h-344.032c53.44 20.592 111.408 32 172.016 32s118.576-11.408 172.016-32zM339.984-64h344.048c-53.44-20.592-111.408-32-172.016-32s-118.592 11.408-172.032 32z" />
<glyph unicode="&#xe9ab;" glyph-name="md-arrow-round-up" d="M825.2 441.8l-268 276.2c-11.6 12-27.4 18-44.8 18h-0.8c-17.4 0-33.2-6-44.8-18l-268-276.2c-25-24-25-62.6 0-86.4s65.4-23.8 90.4 0l158.8 166v-428c0-33.8 28.6-61.2 64-61.2 36 0 64 27.4 64 61.2v428l158.8-166c25-23.8 65.4-23.8 90.4 0s25 62.4 0 86.4z" />
<glyph unicode="&#xe9ac;" glyph-name="weather_rain_fullmoon" d="M86.128 367.648c-3.888-15.184-6.128-31.12-6.128-47.648 0-92.704 67.296-160 160-160h656c75.36 0 128 52.64 128 128 0 71.888-44.528 148.512-112.384 158.832-8.592 160.768-155.84 289.168-335.616 289.168-65.552 0-127.008-18.496-178.496-50.512-42.352 52.016-105.44 82.512-173.504 82.512-123.52 0-224-100.48-224-224 0-42.912 12.176-84.608 35.216-120.608 13.6-21.232 31.024-40.144 50.912-55.744zM880 432v-16h16c56.576 0 96-67.456 96-128 0-58.32-37.68-96-96-96h-656c-75.36 0-128 52.64-128 128 0 79.392 57.424 144 128 144h45.264l2.448 13.040c24.736 131.52 145.968 226.96 288.288 226.96 167.632 0 304-122.016 304-272zM224 736c57.456 0 110.864-25.296 147.152-68.656-55.312-42.448-95.824-102-112.128-171.344h-19.024c-62.080 0-115.872-39.168-142.4-96.144-13.584 11.952-25.696 25.616-35.424 40.784-19.744 30.832-30.176 66.576-30.176 103.36 0 105.872 86.128 192 192 192zM304 128h32v-224h-32v224zM464 128h32v-224h-32v224zM624 128h32v-224h-32v224zM784 128h32v-224h-32v224z" />
<glyph unicode="&#xe9ad;" glyph-name="weather_rain_halfmoon" d="M911.616 446.832c-8.592 160.768-155.84 289.168-335.616 289.168-65.552 0-127.008-18.496-178.496-50.512-42.352 52.016-105.44 82.512-173.504 82.512-13.488 0-27.488-1.344-41.584-4l-23.264-4.384 12.736-19.952c13.152-20.624 20.112-44.368 20.112-68.656 0-70.576-57.424-128-128-128-14.24 0-28.496 2.464-42.384 7.344l-22.272 7.824 0.992-23.584c1.664-39.664 13.712-78.128 34.896-111.2 13.6-21.232 31.008-40.144 50.912-55.744-3.904-15.184-6.144-31.12-6.144-47.648 0-92.704 67.296-160 160-160h656c75.36 0 128 52.64 128 128 0 71.888-44.528 148.512-112.384 158.832zM62.16 440.64c-14.16 22.128-23.568 47.072-27.68 73.168 9.792-1.872 19.648-2.8 29.52-2.8 88.224 0 160 71.776 160 160 0 22.304-4.672 44.208-13.648 64.48 4.624 0.336 9.168 0.512 13.648 0.512 57.456 0 110.864-25.296 147.152-68.656-55.312-42.448-95.824-102-112.128-171.344h-19.024c-62.080 0-115.888-39.168-142.4-96.144-13.584 11.936-25.728 25.6-35.44 40.784zM896 192h-656c-75.36 0-128 52.64-128 128 0 79.392 57.424 144 128 144h45.264l2.448 13.040c24.736 131.52 145.968 226.96 288.288 226.96 167.632 0 304-122.016 304-272v-16h16c56.576 0 96-67.456 96-128 0-58.32-37.68-96-96-96zM304 128h32v-224h-32v224zM464 128h32v-224h-32v224zM624 128h32v-224h-32v224zM784 128h32v-224h-32v224z" />
</font>
</defs>
</svg>
